Сделано в СССР. Детский гардероб (2016) IPTVRip

 
 Статистика раздачи 
Размер: 306.02 МБ   |  Зарегистрирован: 10 дек 2016, 19:35   |   .torrent скачан: 1 раз
Сидеров: 1  [ 0 байт/сек ]     Личеров: 0  [ 0 байт/сек ]  
  

Сделано в СССР. Детский гардероб (2016) IPTVRip

Сообщение explosiveone » 10 дек 2016, 19:36

Сделано в СССР. Детский гардероб (2016) IPTVRip

Телекомпания: МИР
Жанр: Документальный

Описание:
1917–1991 – это не просто промежуток времени, а целая эпоха со своими особенностями, научными открытиями, спортивными достижениями, культурными феноменами. Эта эпоха оставила наследство, которое до сих пор интересно и актуально. Кто-то все еще ностальгирует по своему советскому детству, проведенному в пионерлагере. У кого-то дома хранятся коллекции марок с Гагариным, фарфоровые комсомольцы и подшивки журнала «Крокодил». Иные пересматривают жизнерадостные комедии тридцатых с Любовью Орловой и послевоенные сказки Александра Роу. Каждый найдет для себя в советской эпохе что-нибудь любопытное и увлекательное.
«Сделано в СССР» - это цикл документальных программ, посвященных советской эстетике и культуре, повседневному быту людей и закулисной жизни кумиров, высокому искусству и скоротечным модам.

Релиз от: Печаль
Продолжительность: ~ 00:23:45
Качество видео: IPTVRip
Субтитры: Отсутствуют

Видео: MPEG4, XviD, 720x400 (16:9), 25.000 fps, 1 600 Kbps (0.222 bit/pixel)
Аудио: AC-3, 48.0 KHz, 2 ch, 192 Kbps, CBR
Код:  Общее
Полное имя                               : D:\[1]\Сделано в СССР\Сделано в СССР. Детский гардероб (2016).avi
Формат                                   : AVI
Формат/Информация                        : Audio Video Interleave
Размер файла                             : 306 Мбайт
Продолжительность                        : 23 м.
Общий поток                              : 1801 Кбит/сек
Программа кодирования                    : VirtualDubMod 1.5.10.3 | www.virtualdub-fr.org || (build 2550/release)
Библиотека кодирования                   : VirtualDubMod build 2550/release

Видео
Идентификатор                            : 0
Формат                                   : MPEG-4 Visual
Профиль формата                          : Advanced Simple@L5
Параметр BVOP формата                    : 2
Параметр QPel формата                    : Нет
Параметр GMC формата                     : Без точки перехода
Параметр матрицы формата                 : Default (H.263)
Идентификатор кодека                     : XVID
Идентификатор кодека/Подсказка           : XviD
Продолжительность                        : 23 м.
Битрейт                                  : 1600 Кбит/сек
Ширина                                   : 720 пикселей
Высота                                   : 400 пикселей
Соотношение сторон                       : 16:9
Частота кадров                           : 25,000 кадров/сек
Цветовое пространство                    : YUV
Субдискретизация насыщенности            : 4:2:0
Битовая глубина                          : 8 бит
Тип развёртки                            : Прогрессивная
Метод сжатия                             : С потерями
Бит/(Пиксели*Кадры)                      : 0.222
Размер потока                            : 272 Мбайт (89%)
Библиотека кодирования                   : XviD 73

Аудио
Идентификатор                            : 1
Формат                                   : AC-3
Формат/Информация                        : Audio Coding 3
Расширение режима                        : CM (complete main)
Параметр Endianness формата              : Big
Идентификатор кодека                     : 2000
Продолжительность                        : 23 м.
Вид битрейта                             : Постоянный
Битрейт                                  : 192 Кбит/сек
Каналы                                   : 2 канала
Расположение каналов                     : Front: L R
Частота                                  : 48,0 КГц
Битовая глубина                          : 16 бит
Метод сжатия                             : С потерями
Размер потока                            : 32,6 Мбайт (11%)
Выравнивание                             : Разделение по промежуткам
Продолжительность промежутка             : 40  мс. (1,00 видеокадр)
Время предзагрузки промежутка            : 500  мс.
 
Старые добрые антресоли....Каких только вещей из прошлого там не найдешь! Трехлитровые банки для заготовок, связки писем и потрепанный чемодан, в котором мама заботливо сохранила детские вещи. Запах нафталина напомнит очереди - гонку за дефицитом, бессонные ночи над штопкой, а еще - веселые утренники в костюме снежинки. Снежные катышки на связанных бабушкой варежках, первые импортные кроссовки - трогательные приметы советского детства.

Скриншоты:



Время раздачи: 24/7. До первых 5 скачавших.
 
Не забывайте говорить Спасибо. Не уходите с раздачи!   
Торрент: Зарегистрирован [10 дек 2016, 19:35] Для скачивания .torrent
необходима регистрация
Или скачать с помощью
MediaGet
Статус:
Проверен
 
.torrent скачан: 1 раз
Хэш: eb480480d44a8dc87b053d499781e4a4e9735ef7
Размер: 306.02 МБ (320 880 640 байт)
Стать Автором раздачи
 
 
Раздал: 100 ГБ
Скачал: 0 байт
Ратио: Seed.
Сообщения: 94135
Зарегистрирован: 09 апр 2015, 22:31


  • Похожие торренты
    Ответы
    Просмотры
    Последнее сообщение

Вернуться в Эпоха СССР (видео)

Ресурс не предоставляет электронные версии произведений, а занимается лишь коллекционированием и каталогизацией ссылок, присылаемых и публикуемых на форуме нашими читателями. Если вы являетесь правообладателем какого-либо представленного материала и не желаете чтобы ссылка на него находилась в нашем каталоге, свяжитесь с нами и мы незамедлительно удалим её. Файлы для обмена на трекере предоставлены пользователями сайта, и администрация не несёт ответственности за их содержание. Просьба не заливать файлы, защищенные авторскими правами, а также файлы нелегального содержания!
cron