Лучшие убийцы древних времён (4 серии из 10) / Ancient Assassins (Крис Летбридж / Chris Lethbridge) [2016, Документальный, война, история, постановочный, HDTVRip (720p)]

 
 Статистика раздачи 
Размер: 5.57 ГБ   |  Зарегистрирован: 09 дек 2016, 19:35   |   .torrent скачан: 1078 раз
Сидеров: 47  [ 0 байт/сек ]     Личеров: 2  [ 0 байт/сек ]  
  

Лучшие убийцы древних времён (4 серии из 10) / Ancient Assassins (Крис Летбридж / Chris Lethbridge) [2016, Документальный, война, история, постановочный, HDTVRip (720p)]

Сообщение aLaVodka » 09 дек 2016, 19:35

Лучшие убийцы древних времён (5 серий из 10) / Ancient Assassins

Дата/Год выпуска: 2016
Страна: Великобритания
Жанр: Документальный, война, история, постановочный
Продолжительность: 5 x ~ 00:43:24
Перевод: Профессиональный (дублированный)
Режиссер: Крис Летбридж / Chris Lethbridge

Телеканал: Viasat History

Описание: История полна легенд о храбрых воинах и элитных бойцах, что защищали правителей, побеждали армии и спасали империи. В этой познавательной и развлекательной передаче мы узнаем о жизни и заданиях, которые выполняли лучшие древние убийцы мира: от Древней Греции до Японии. Благодаря великолепной игре актёров, документальным свидетельствам и помощи экспертов их истории вновь оживут. Правителям всегда нужны были элитные бойцы, мужчины или женщины, которые идеально владели оружием и, при необходимости, могли убить столько врагов, сколько потребуется. Каждая серия посвящается одному убийце или группе, рассказывает об умениях, тренировках и о том, как они заслужили себе репутацию самых лучших и как их умения повлияли на современную военную стратегию. Вы узнаете, как буддистский монах стал кунг-фу киллером, как саксонские войска наконец-то превзошли викингов, как цыгане-наёмники Влада Колосажателя сдерживали Османское вторжение и как элитное голландское племя помогло римскому императору Клавдию завладеть Британией. Любители истории обязательно найдут что-то новое в этой увлекательной, документальной и порой шокирующей передаче.

Доп. информация: Авторство релиза - alf62



качество: HDTVRip (720p)
формат: MKV
Видео: MPEG-4 AVC, ~ 3500 Кбит/с, 1280x720
Аудио: 48 kHz, AC3 Dolby Digital, 2/0 (L,R) ch, ~192.00 kbps avg
01. Священный отряд из Фив / Sacred Band of Thebes
371 году до нашей эры. Военная машина Спарты. Самая мощная армия в истории, безжалостно уничтожающая слабого противника. У фиванцев нет шансов выстоять перед спартанцами. Фиванские командиры нарушают все правила боя и выпускают на поле брани ни с чем несравнимую силу. Смогут ли более слабые воины отстоять свободу своего народа и разгромить спартанскую суперармию?

2. Спайдермены Александра Македонского / Alexander The Great's Spidermen
327 год до н. э. Александр Великий, царь Македонии и завоеватель персидской Империи пытается направиться на восток, и вторгнутся в Индию. Но в бесплодных землях к северу от Афганистана, ему противостоит мятежный военачальник Оксиа́рт. Его дочь считается самой красивой девушкой в Азии. Холодной, темной ночью, Александр посылает 300 отобранных воинов на операцию смерти или славы. Их цель - горная цитадель военачальника. Их миссия состоит в том, чтобы преодолеть 900 метров отвесной скалы и взобраться на ее вершину не будучи обнаруженными. Это жестокое испытание, требующее умения и мужества.

3. Монахиня, мастер кунг-фу / Kung Fu Nun
17 век, Китай. Династия Мин находится под атакой безжалостных маньчжурских захватчиков с севера. Лишь не многие противостоят новому режиму. В их числе отважная девушка, обладающая уникальным талантом. Она владеет приемами, позволяющими бороться со смертельным врагом, которые лягут в основу одного из самых смертоносных боевых искусств.

4. Красавица-самурай / Beautiful Samurai
Две великие самурайские армии сражаются за будущее Японии. Жестокая гражданская война разрывает островную Империю на части. В этой резне один самурай превосходит всех. Этот превосходный воин жертвует всем, чтобы в кровавой бойне стать первым сёгуном.

5. Охрана Папы Римского
Как швейцарские гвардейцы, рисковавшие своей жизнью ради Папы Римского в 1527 году во время кровавой битвы с мятежной армией короля Испании Карла V, стали самой старинной армией на сегодняшний день?
Код: Выделить всё
Лучшие.убийцы.древних.времён.(01.серия).Священный.отряд.из.Фив.2016.HDTV.720p.x264.alf62.mkv
Формат                                   : Matroska
Версия формата                           : Version 2
Размер файла                             : 1,12 Гбайт
Продолжительность                        : 43 м.
Общий поток                              : 3693 Кбит/сек
Дата кодирования                         : UTC 2016-11-10 04:19:36
Программа кодирования                    : mkvmerge v7.8.0 ('River Man') 32bit built on Apr  3 2015 12:11:22
Библиотека кодирования                   : libebml v1.3.1 + libmatroska v1.4.2

Видео
Идентификатор                            : 1
Формат                                   : AVC
Формат/Информация                        : Advanced Video Codec
Профиль формата                          : [email protected]
Параметр CABAC формата                   : Да
Параметр ReFrames формата                : 9 кадров
Идентификатор кодека                     : V_MPEG4/ISO/AVC
Продолжительность                        : 43 м.
Битрейт                                  : 3500 Кбит/сек
Ширина                                   : 1280 пикселей
Высота                                   : 720 пикселей
Соотношение сторон                       : 16:9
Режим частоты кадров                     : Постоянный
Частота кадров                           : 25,000 кадров/сек
Цветовое пространство                    : YUV
Субдискретизация насыщенности            : 4:2:0
Битовая глубина                          : 8 бит
Тип развёртки                            : Прогрессивная
Бит/(Пиксели*Кадры)                      : 0.152
Размер потока                            : 1,04 Гбайт (93%)
Библиотека кодирования                   : x264 core 146 r2538 121396c
Настройки программы                      : cabac=1 / ref=9 / deblock=1:-2:-2 / analyse=0x3:0x113 / me=umh / subme=10 / psy=1 / psy_rd=1.00:0.00 / mixed_ref=1 / me_range=32 / chroma_me=1 / trellis=2 / 8x8dct=1 / cqm=0 / deadzone=21,11 / fast_pskip=0 / chroma_qp_offset=-2 / threads=6 / lookahead_threads=1 / sliced_threads=0 / nr=0 / decimate=0 / interlaced=0 / bluray_compat=0 / constrained_intra=0 / bframes=9 / b_pyramid=2 / b_adapt=2 / b_bias=0 / direct=3 / weightb=1 / open_gop=0 / weightp=2 / keyint=250 / keyint_min=25 / scenecut=40 / intra_refresh=0 / rc_lookahead=40 / rc=2pass / mbtree=0 / bitrate=3500 / ratetol=1.0 / qcomp=0.60 / qpmin=10 / qpmax=51 / qpstep=4 / cplxblur=20.0 / qblur=0.5 / vbv_maxrate=14000 / vbv_bufsize=14000 / nal_hrd=none / filler=0 / ip_ratio=1.40 / pb_ratio=1.30 / aq=1:0.80
Default                                  : Да
Forced                                   : Нет

Аудио
Идентификатор                            : 2
Формат                                   : AC-3
Формат/Информация                        : Audio Coding 3
Расширение режима                        : CM (complete main)
Параметр Endianness формата              : Big
Идентификатор кодека                     : A_AC3
Продолжительность                        : 43 м.
Вид битрейта                             : Постоянный
Битрейт                                  : 192 Кбит/сек
Каналы                                   : 2 канала
Расположение каналов                     : Front: L R
Частота                                  : 48,0 КГц
Битовая глубина                          : 16 бит
Метод сжатия                             : С потерями
Размер потока                            : 59,6 Мбайт (5%)
Default                                  : Да
Forced                                   : Нет
Внимание! Раздача ведётся путём добавления новых серий
Внимание! Раздача ведётся путём добавления новых серий; при каждом добавлении создаётся новый торрент. Чтобы начать докачку новой серии, пользователям необходимо сделать следующее:
• Остановить скачивание.
• Удалить старый торрент у себя из клиента (старые серии удалять не надо).
• Скачать новый торрент и запустить его у себя в клиенте вместо старого, при этом указать клиенту путь в старую папку куда и должно происходить скачивание новых серий.
Ваш клиент при этом должен произвести хеширование (проверку) старой папки (если не производит сам - помогите ему сделать это), и будет докачивать только те серии которых у вас ещё нет. Старые серии при этом не удаляются, а продолжают раздаваться!
Eсли вы уже удалили старые серии, то предотвратить повторную закачку старых серий можно, отжав галочку в соответсвующих местах при запуске нового торрента. По возможности, желательно не удалять старые серии как можно дольше чтобы релизёр не столько продолжал раздавать старые серии, а смог сконцентрироваться на новых.


 
Не забывайте говорить Спасибо. Не уходите с раздачи!   
Торрент: Зарегистрирован [09 дек 2016, 19:35] Для скачивания .torrent
необходима регистрация
Или скачать с помощью
MediaGet
Статус:
Проверен
 
.torrent скачан: 1078 раз
Хэш: 4ca707aa99c5bb8f21b5c14933da43b8eb70d420
Размер: 5.57 ГБ (5 979 486 833 байт)
Стать Автором раздачи
 
 
Раздал: 100 ГБ
Скачал: 0 байт
Ратио: Seed.
Сообщения: 177452
Зарегистрирован: 09 апр 2015, 20:00


  • Похожие торренты
    Ответы
    Просмотры
    Последнее сообщение

Вернуться в История (HD Video)

Кто сейчас на конференции

Сейчас эту тему просматривают: нет зарегистрированных пользователей и гости: 1

Ресурс не предоставляет электронные версии произведений, а занимается лишь коллекционированием и каталогизацией ссылок, присылаемых и публикуемых на форуме нашими читателями. Если вы являетесь правообладателем какого-либо представленного материала и не желаете чтобы ссылка на него находилась в нашем каталоге, свяжитесь с нами и мы незамедлительно удалим её. Файлы для обмена на трекере предоставлены пользователями сайта, и администрация не несёт ответственности за их содержание. Просьба не заливать файлы, защищенные авторскими правами, а также файлы нелегального содержания!