Где находится нофелет? (1987) HDRip [H.264/720p]

 
 Статистика раздачи 
Размер: 2.3 ГБ   |  Зарегистрирован: 09 дек 2016, 19:02   |   .torrent скачан: 1 раз
Сидеров: 1  [ 0 байт/сек ]     Личеров: 0  [ 0 байт/сек ]  
  

Где находится нофелет? (1987) HDRip [H.264/720p]

Сообщение explosiveone » 09 дек 2016, 19:02

Где находится нофелет? (1987) HDRip

Производство: СССР, Мосфильм
Жанр: Комедия

Режиссер: Геральд Бежанов
Актеры: Владимир Меньшов, Александр Панкратов-Черный, Валентина Теличкина, Людмила Шагалова, Николай Парфенов, Марина Дюжева, Людмила Нильская, Наталья Коновалова, Ольга Шорина, Елена Покатилова, Елена Сафонова, Екатерина Жемчужная, Ирина Розанова, Ирина Шмелева, Людмила Шевель, Ольга Кабо

Описание:
Что такое нофелет? Это разъяснит вам один из героев фильма — Гена, который взялся с помощью нехитрого приема в два счета найти невесту своему двоюродному брату Паше, сорокалетнему холостяку.


Возраст: 16+ (зрителям, достигшим 16 лет)

Релиз от: smithland

Продолжительность: 01:17:24
Качество видео: HDRip

Видео: AVC/H.264, 1280x616, ~4000 Kbps
Аудио: AC3, 2 ch, 256 kbps, CBR
Код: Выделить всё
General
Unique ID                      : 234013461269359176442589422201074125031 (0xB00D5A6E40EABDA48B6A8ACA556888E7)
Complete name                  : Где находится нофелет.mkv
Format                         : Matroska
Format version                 : Version 4 / Version 2
File size                      : 2.30 GiB
Duration                       : 1h 17mn
Overall bit rate               : 4 246 Kbps
Movie name                     : Где находится нофелет? (rip by smithland)
Encoded date                   : UTC 2016-12-09 14:24:31
Writing application            : mkvmerge v9.5.0 ('Quiet Fire') 64bit
Writing library                : libebml v1.3.4 + libmatroska v1.4.5
Attachements                   : cover.jpg

Video
ID                             : 1
Format                         : AVC
Format/Info                    : Advanced Video Codec
Format profile                 :
Format settings, CABAC         : Yes
Format settings, ReFrames      : 8 frames
Codec ID                       : V_MPEG4/ISO/AVC
Duration                       : 1h 17mn
Bit rate                       : 4 000 Kbps
Width                          : 1 280 pixels
Height                         : 616 pixels
Display aspect ratio           : 2.078
Frame rate mode                : Constant
Frame rate                     : 24.000 fps
Color space                    : YUV
Chroma subsampling             : 4:2:0
Bit depth                      : 8 bits
Scan type                      : Progressive
Bits/(Pixel*Frame)             : 0.211
Stream size                    : 2.11 GiB (92%)
Writing library                : x264 core 148 r2708 86b7198
Encoding settings              : cabac=1 / ref=8 / deblock=1:-2:-1 / analyse=0x3:0x133 / me=umh / subme=11 / psy=1 / psy_rd=1.10:0.55 / mixed_ref=1 / me_range=32 / chroma_me=1 / trellis=2 / 8x8dct=1 / cqm=0 / deadzone=21,11 / fast_pskip=1 / chroma_qp_offset=-4 / threads=12 / lookahead_threads=1 / sliced_threads=0 / nr=0 / decimate=0 / interlaced=0 / bluray_compat=0 / constrained_intra=0 / bframes=5 / b_pyramid=2 / b_adapt=1 / b_bias=0 / direct=1 / weightb=1 / open_gop=0 / weightp=2 / keyint=240 / keyint_min=24 / scenecut=40 / intra_refresh=0 / rc_lookahead=40 / rc=abr / mbtree=1 / bitrate=4000 / ratetol=1.0 / qcomp=0.60 / qpmin=0 / qpmax=69 / qpstep=4 / vbv_maxrate=62500 / vbv_bufsize=78125 / nal_hrd=none / filler=0 / ip_ratio=1.40 / aq=1:1.00
Language                       : Russian
Default                        : Yes
Forced                         : Yes
Color range                    : Limited
Color primaries                : BT.709
Transfer characteristics       : BT.709
Matrix coefficients            : BT.709
DURATION                       : 01:17:23.792000000
NUMBER_OF_FRAMES               : 111451
NUMBER_OF_BYTES                : 2314773780
_STATISTICS_WRITING_APP        : mkvmerge v9.5.0 ('Quiet Fire') 64bit
_STATISTICS_WRITING_DATE_UTC   : 2016-12-09 14:24:31
_STATISTICS_TAGS               : BPS DURATION NUMBER_OF_FRAMES NUMBER_OF_BYTES

Audio
ID                             : 2
Format                         : AC-3
Format/Info                    : Audio Coding 3
Mode extension                 : CM (complete main)
Format settings, Endianness    : Big
Codec ID                       : A_AC3
Duration                       : 1h 17mn
Bit rate mode                  : Constant
Bit rate                       : 256 Kbps
Channel(s)                     : 2 channels
Channel positions              : Front: L R
Sampling rate                  : 48.0 KHz
Compression mode               : Lossy
Delay relative to video        : -5ms
Stream size                    : 142 MiB (6%)
Title                          : Stereo
Language                       : Russian
Default                        : Yes
Forced                         : Yes
DURATION                       : 01:17:23.904000000
NUMBER_OF_FRAMES               : 145122
NUMBER_OF_BYTES                : 148604928

Скриншоты:



Время раздачи: 12:00-22:00 (до появления первых 3-5 скачавших)
 
Не забывайте говорить Спасибо. Не уходите с раздачи!   
Торрент: Зарегистрирован [09 дек 2016, 19:02] Для скачивания .torrent
необходима регистрация
Или скачать с помощью
MediaGet
Статус:
Проверен
 
.torrent скачан: 1 раз
Хэш: c046e9fdb8400f09e7605c8f9d137cce55c9c3ad
Размер: 2.3 ГБ (2 464 461 653 байт)
Стать Автором раздачи
 
 
Раздал: 100 ГБ
Скачал: 0 байт
Ратио: Seed.
Сообщения: 82468
Зарегистрирован: 09 апр 2015, 22:31


  • Похожие торренты
    Ответы
    Просмотры
    Последнее сообщение

Вернуться в Отечественное кино (HD Video)

Кто сейчас на конференции

Сейчас эту тему просматривают: нет зарегистрированных пользователей и гости: 1

Ресурс не предоставляет электронные версии произведений, а занимается лишь коллекционированием и каталогизацией ссылок, присылаемых и публикуемых на форуме нашими читателями. Если вы являетесь правообладателем какого-либо представленного материала и не желаете чтобы ссылка на него находилась в нашем каталоге, свяжитесь с нами и мы незамедлительно удалим её. Файлы для обмена на трекере предоставлены пользователями сайта, и администрация не несёт ответственности за их содержание. Просьба не заливать файлы, защищенные авторскими правами, а также файлы нелегального содержания!