Сборник клипов - Philizz "Video Yearmix" (2016) HDTV [1080p]

 
 Статистика раздачи 
Размер: 6.18 ГБ   |  Зарегистрирован: 09 дек 2016, 16:56   |   .torrent скачан: 0 раз
Сидеров: 1  [ 0 байт/сек ]     Личеров: 0  [ 0 байт/сек ]  
  

Сборник клипов - Philizz "Video Yearmix" (2016) HDTV [1080p]

Сообщение explosiveone » 09 дек 2016, 16:56

Сборник клипов - Philizz "Video Yearmix" (2016) HDTV [1080p]

Исполнитель: Philizz
Название: Video Yearmix 2016
Год выхода: 2016
Дата релиза: 03.12.2016
Жанр: Pop, Club, Dance, Video-Megamix
Продолжительность: 01:55:51

Описание:
Сборник клипов "Video Yearmix 2016" - фирменный видеомикс от голландского ви-джея Philizz. Почти два часа мировых музыкальных хитов в двух частях! Высокое качество и отличный видеоряд обеспечат Вам хорошее настроение. Добро пожаловать в мир лучшей танцевальной музыки 2016 года!
- Разбивка по трекам отсутствует.

Видеокодек: MPEG4 (AVC)
Качество видео: HDTV
Размер кадра: 1920х1080
Битрейт видео: 7318 Kbps
Аудиокодек: AАC 2.0
Битрейт аудио: 317 Kbps (VBR)

Треклист:
Part 1:
Shawn Mendes – Mercy
Pitbull ft. Enrique Iglesias – Messin’ Around
Pink – Just Like Fire
Joel Adams – Please Don’t Go
Adele – Send My Love (To Your New Lover)
The Chainsmokers ft. Daya – Don’t Let Me Down
Shawn Mendes – Treat You Better
Marc E. Bassy – You & Me
Kiiara – Gold
Kent Jones – Don’t Mind
Hailee Steinfeld ft. DNCE – Rock Bottom
Dua Lipa – Be The One
Twenty One Pilots – Stressed Out
Broederliefde – Mi No Lob
Troye Sivan - Youth
Major Lazer ft. Justin Bieber & Mo – Cold Water
Sia ft. Sean Paul – Cheap Thrills
Rihanna ft. Drake – Work
Enrique Iglesias ft. Wisin – Duele El Corazon
Alan Walker – Faded
Charlie Puth – One Call Away
The Black Eyed Peas ft. The World - #WHERESTHELOVE
The Chainsmokers ft. Halsey - Closer
Fifth Harmony ft. Fetty Wap – All In My Head
Frenship ft. Emily Warren – Capsize
Jordan Fisher – All About Us
Sia ft. Kendrick Lamar – The Greatest
Robbie Williams – Love My Life
Coldplay ft. Beyonce – Hymn For The Weekend
Troye Sivan ft. Allesia Cara – Wild
Mike Perry ft. Shy Martin – The Ocean
The Weeknd ft. Daft Punk – Starboy
Taylor Swift – Out Of The Woods
Twenty One Pilots – Heathens
OneRepublic – Kids
Nathan Goshen – Thinking About It (Let It Go)
Gnash ft. Olivia O’Brien – I Hate U, I Love U
The Chainsmokers ft. Rozes – Roses
Hailee Steinfeld & Grey ft. Zedd – Starving
Charlie Puth ft. Selena Gomez – We Don’t Talk Anymore
Willy William – Ego
Halsey – Colors
DJ Snake ft. Justin Bieber – Let Me Love You
Mike Posner – I Took A Pill In Ibiza
Digital Farm Animals & Cash Cash ft. Nelly - Millionaire
Fifth Harmony – That’s My Girl
Tove Lo – Cool Girl
Sak Noel & Salvi ft. Sean Paul – Trumpets
Porter Robinson & Madeon – Shelter
Clean Bandit ft. Sean Paul & Anne-Marie – Rockabye
AlunaGeorge ft. Popcaan – I’m In Control
Ariana Grande – Into You
Matt Simons – Catch & Release (Deepend Mix)
Bruno Mars – 24K Magic
Fifth Harmony ft. Ty Dolla Sign – Work From Home
Kygo ft. Maty Noyes – Stay
Timeflies – Once In A While
Dua Lipa – Blow Your Mind (Mwah)
Major Lazer ft. Nyla & Fuse ODG – Light It Up
David Guetta ft. Zara Larsson – This One’s For You
Cheat Codes x Kris Kross Amsterdam - Sex
M.O. – Who Do You Think Of?
Ellie Goulding – Something In The Way You Move
Mo – Final Song
Dua Lipa – Hotter Than Hell
G-Eazy ft. Bebe Rexha – Me Myself and I
Justin Timberlake – Can’t Stop The Feeling!
Coldplay – Adventure Of A Lifetime
Shawn Mendes & Camila Cabello – I Know What You Did Last Summer
Jonas Blue ft. Dakota – Fast Car
Imany – Don’t Be So Shy (Filatov & Karas Mix)
Lil Kleine – Vakantie
Selena Gomez – Kill Em With Kindness
Filatov & Karas – Tell It To My Heart
Kungs vs. Cookin’ On 3 Burners – This Girl
Olly Murs – You Don’t Know Love
Frans – If I Were Sorry
Chace & Yellow Claw - Stranger
Fleur East – Sax
Zayn – Pillowtalk

Part 2:
Zayn – Pillowtalk
Benny Benassi ft. Chris Brown – Paradise
Jennifer Lopez – Ain’t Your Mama
Tiesto & Oliver Heldens ft. Natalie La Rose – The Right Song
Jonas Blue ft. JP Cooper – Perfect Strangers (Chris Cox mix)
Firebeatz & Fafaq – Sir Duke
Clean Bandit ft. Louisa Johnson - Tears
Dropgun – Together As One
DJ Territo – Back To You
Fais ft. Afrojack – Used To Have It All
Watermat – Empire
Lucas & Steve – Love On My Mind
John Legend – Love Me Now
Adele – When We Were Young (DiscoTech 2AM Mix)
Sigala ft. Bryn Christopher – Sweet Lovin’
David Guetta ft. Chris Willis – Would I Lie To You
DVBBS ft. Dante Leon – Angel
Lucas & Steve – Make It Right
Lukas Graham – 7 Years (Toby Romeo Mix)
Little Mix – Shout Out to My Ex
Bebe Rexha ft. Nicki Minaj – No Broken Hearts
Calvin Harris ft. Rihanna – This is What You Came for
DNCE – Cake By The Ocean
Joe Stone & Daser – Freak (DJ Denis Mix)
Dada Life – One Last Night On Earth
Hardwell ft. Jake Reese – Run Wild
Robin Schulz – Show Me Love
Pep & Rash – Love The One You’re With
Otto Knows ft. Avicii – Back Where I Belong
Alvaro Soler – Sofia (Alien Cut Mix)
Fais ft. Afrojack – Hey
Galantis – No Money
Craig David & Sigala – Ain’t Giving Up
Deorro ft. Elvis Crespo – Bailar
Sigala ft. John Newman & Nile Rodgers – Give Me Your Love
Galantis & Hook N Sling – Love On Me
Martin Garrix ft. Bebe Rexha – In The Name Of Love
Danny L Harle ft. Carly Rae Jepsen – Super Natural
Sigala ft. Imani & DJ Fresh – Say You Do
Sigma – Stay
Код: Общее
Полное имя : Philizz Video Yearmix 2016.HDTV1080p.mp4
Формат : MPEG-4
Профиль формата : Base Media / Version 2
Идентификатор кодека : mp42 (mp42/mp41)
Размер файла : 6,18 Гбайт
Продолжительность : 1 ч. 55 м.
Режим общего битрейта : Переменный
Общий поток : 7640 Кбит/сек

Видео
Идентификатор : 1
Формат : AVC
Формат/Информация : Advanced Video Codec
Профиль формата :
Параметр CABAC формата : Да
Параметр ReFrames формата : 3 кадра
Идентификатор кодека : avc1
Идентификатор кодека/Информация : Advanced Video Coding
Продолжительность : 1 ч. 55 м.
Битрейт : 7318 Кбит/сек
Ширина : 1920 пикселей
Высота : 1080 пикселей
Соотношение сторон : 16:9
Режим частоты кадров : Постоянный
Частота кадров : 25,000 кадров/сек
Стандарт вещания : PAL
Цветовое пространство : YUV
Субдискретизация насыщенности : 4:2:0
Битовая глубина : 8 бит
Тип развёртки : Прогрессивная
Бит/(Пиксели*Кадры) : 0.141
Размер потока : 5,92 Гбайт (96%)
Язык : English
Цветовой диапазон : Limited

Аудио
Идентификатор : 2
Формат : AAC
Формат/Информация : Advanced Audio Codec
Профиль формата : LC
Идентификатор кодека : 40
Продолжительность : 1 ч. 55 м.
Продолжительность оригинала : 1 ч. 55 м.
Вид битрейта : Переменный
Битрейт : 317 Кбит/сек
Максимальный битрейт : 424 Кбит/сек
Каналы : 2 канала
Расположение каналов : Front: L R
Частота : 48,0 КГц
Частота кадров : 46,875 кадров/сек (1024 spf)
Метод сжатия : С потерями
Размер потока : 263 Мбайт (4%)
Размер потока оригинала : 263 Мбайт (4%)
Язык : English

Скриншоты:



Время раздачи: 24/7
Приятного просмотра Philizz Video YearMix - 2016!

 
Не забывайте говорить Спасибо. Не уходите с раздачи!   
Торрент: Зарегистрирован [09 дек 2016, 16:56] Скачать торрент
Скачать торрент
[ Размер 31.64 КБ / Просмотров 30 ]
Статус:
Проверен
 
.torrent скачан: 0 раз
Хэш: c348d79df57ac4e0eda1544fd2ae41cfb95c8557
Размер: 6.18 ГБ (6 638 887 228 байт)
Стать Автором раздачи
 
 
Раздал: 100 ГБ
Скачал: 0 байт
Ратио: Seed.
Сообщения: 112009
Зарегистрирован: 09 апр 2015, 22:31


  • Похожие торренты
    Ответы
    Просмотры
    Последнее сообщение

Вернуться в Музыкальные клипы (транзит)

Ресурс не предоставляет электронные версии произведений, а занимается лишь коллекционированием и каталогизацией ссылок, присылаемых и публикуемых на форуме нашими читателями. Если вы являетесь правообладателем какого-либо представленного материала и не желаете чтобы ссылка на него находилась в нашем каталоге, свяжитесь с нами и мы незамедлительно удалим её. Файлы для обмена на трекере предоставлены пользователями сайта, и администрация не несёт ответственности за их содержание. Просьба не заливать файлы, защищенные авторскими правами, а также файлы нелегального содержания!
cron