Дом странных детей Мисс Перегрин / Miss Peregrine's Home for Peculiar Children (2016) HDRip [H.264] [MP4|1024x552]

 
 Статистика раздачи 
Размер: 2.18 ГБ   |  Зарегистрирован: 09 дек 2016, 12:37   |   .torrent скачан: 0 раз
Сидеров: 1  [ 0 байт/сек ]     Личеров: 2  [ 0 байт/сек ]  
  

Дом странных детей Мисс Перегрин / Miss Peregrine's Home for Peculiar Children (2016) HDRip [H.264] [MP4|1024x552]

Сообщение explosiveone » 09 дек 2016, 12:37

Дом странных детей Мисс Перегрин / Miss Peregrine's Home for Peculiar Children (2016) HDRip

«Stay peculiar»

Производство: США, Великобритания, Бельгия / Twentieth Century Fox Film Corporation, Chernin Entertainment, Scope Pictures
Жанр: Фэнтези, Драма, Приключения, Семейный

Режиссер: Тим Бёртон
Актеры: Ева Грин, Эйса Баттерфилд, Сэмюэл Л. Джексон, Джуди Денч, Руперт Эверетт, Эллисон Дженни, Крис О’Дауд, Теренс Стэмп, Элла Пернелл, Финлэй МакМиллан, Лорен МакКрости, Хейден Килер-Стоун

Описание:
Детство Джейкоба прошло под рассказы дедушки о приюте для необычных детей. Среди его обитателей девочка, которая умела держать в руках огонь, девочка, чьи ноги не касались земли, невидимый мальчик и близнецы, умевшие общаться без слов. Когда дедушка умирает, 16-летний Джейкоб получает загадочное письмо и отправляется на остров, где вырос его дед. Там он находит детей, которых раньше видел только на фотографиях.


Возраст: 16+ (зрителям, достигшим 16 лет)
Рейтинг MPAA: PG-13 (детям до 13 лет просмотр нежелателен)

Релиз от: NNMClub
Продолжительность: 02:06:55
Качество видео: HDRip
Перевод: Дублированный - (BD CEE)
Вид субтитров: Вшитые отключаемые
Язык субтитров: Русский, Английский

Видео: AVC/H.264 (Main@L3.1), 1024x552 (1.85:1), 2200 Кбит/сек
Аудио #1: AAC, 2 канала, 128 Кбит/сек - русский (дублированный)
Аудио #2: AAC, 2 канала, 128 Кбит/сек - английский
Код:
General
Complete name                            : C:\CREATE\264mod1\out\Miss.Peregrine's.Home.for.Peculiar.Children.2016.576p.HDRip.AAC.h264.NNMclub.mp4
Format                                   : MPEG-4
Format profile                           : Base Media / Version 2
Codec ID                                 : mp42 (mp42/isom)
File size                                : 2.18 GiB
Duration                                 : 2 h 6 min
Overall bit rate mode                    : Variable
Overall bit rate                         : 2 462 kb/s
Movie name                               : Miss Peregrine's Home for Peculiar Children
Performer                                : Tim Burton
Director                                 : Tim Burton
Actor                                    : Eva Green / Asa Butterfield / Chris O'Dowd / Allison Janney / Rupert Everett / Terence Stamp / Ella Purnell / Judi Dench
Genre                                    : Sci-Fi & Fantasy
ContentType                              : Short Film
Description                              : From visionary director Tim Burton and based on the best-selling novel, comes this truly magical
Recorded date                            : 2016-09-30
Encoded date                             : UTC 2016-12-08 17:36:34
Tagged date                              : UTC 2016-12-08 20:15:02
Copyright                                : © 2016 Twentieth Century Fox Film Corporation
Cover                                    : Yes
LongDescription                          : From director Tim Burton, comes a wildly imaginative fantasy-adventure. When Jake unravels a mystery that spans alternate realities and times, he discovers a secret world for children with unusual powers, including levitating Emma, pyrokinetic Olive, and invisible Millard. But danger soon arises and the children must band together to protect a world as extraordinary as they are.
AppleStoreCountry                        : United States
AppleStoreCatalogID                      : 1151555161
ContentRating                            : mpaa|PG-13|300|

Video
ID                                       : 1
Format                                   : AVC
Format/Info                              : Advanced Video Codec
Format profile                           :
Format settings, CABAC                   : Yes
Format settings, ReFrames                : 3 frames
Codec ID                                 : avc1
Codec ID/Info                            : Advanced Video Coding
Duration                                 : 2 h 6 min
Bit rate                                 : 2 200 kb/s
Width                                    : 1 024 pixels
Height                                   : 552 pixels
Display aspect ratio                     : 1.85:1
Frame rate mode                          : Variable
Frame rate                               : 23.976 (24000/1001) FPS
Minimum frame rate                       : 23.810 FPS
Maximum frame rate                       : 24.390 FPS
Color space                              : YUV
Chroma subsampling                       : 4:2:0
Bit depth                                : 8 bits
Scan type                                : Progressive
Bits/(Pixel*Frame)                       : 0.162
Stream size                              : 1.95 GiB (89%)
Writing library                          : x264 core 148 r2744+55 950084e t_mod_Custom [8-bit@all X86_64]
Encoding settings                        : cabac=1 / ref=3 / deblock=1:-3:-3 / analyse=0x1:0x131 / me=umh / subme=7 / psy=1 / fade_compensate=0.00 / psy_rd=1.00:0.20 / mixed_ref=1 / me_range=32 / chroma_me=1 / trellis=2 / 8x8dct=0 / cqm=0 / deadzone=21,11 / fast_pskip=0 / chroma_qp_offset=-3 / threads=17 / lookahead_threads=2 / sliced_threads=0 / nr=0 / decimate=0 / interlaced=0 / bluray_compat=0 / constrained_intra=0 / fgo=0 / bframes=3 / b_pyramid=1 / b_adapt=2 / b_bias=0 / direct=3 / weightb=1 / open_gop=0 / weightp=2 / keyint=240 / keyint_min=23 / scenecut=40 / intra_refresh=0 / rc_lookahead=60 / rc=2pass / mbtree=1 / bitrate=2200 / ratetol=1.0 / qcomp=0.60 / qpmin=0:0:0 / qpmax=69:69:69 / qpstep=4 / cplxblur=20.0 / qblur=0.5 / vbv_maxrate=10000 / vbv_bufsize=10000 / nal_hrd=none / filler=0 / ip_ratio=1.40 / aq=3:1.00 / aq-sensitivity=10.00 / aq-factor=1.00:1.00:1.00 / aq2=1:0.85 / aq2-sensitivity=15.00 / aq2-factor=1.00:1.00:1.00 / aq3=3:[0.50:0.50]:[0.50:0.50]:[0.50:0.50]:[0.50:0.50] / aq3-sensitivity=10.00 / aq3-factor=[1.00:1.00]:[1.00:1.00]:[1.00:1.00] / aq3-boundary=192:64:24
Encoded date                             : UTC 2016-12-08 17:36:34
Tagged date                              : UTC 2016-12-08 17:43:52
Color range                              : Limited
Color primaries                          : BT.709
Transfer characteristics                 : BT.709
Matrix coefficients                      : BT.709
Menus                                    : 6

Audio #1
ID                                       : 2
Format                                   : AAC
Format/Info                              : Advanced Audio Codec
Format profile                           : LC
Codec ID                                 : 40
Duration                                 : 2 h 6 min
Source duration                          : 2 h 6 min
Bit rate mode                            : Variable
Bit rate                                 : 128 kb/s
Maximum bit rate                         : 132 kb/s
Channel(s)                               : 2 channels
Channel positions                        : Front: L R
Sampling rate                            : 48.0 kHz
Frame rate                               : 46.875 FPS (1024 spf)
Compression mode                         : Lossy
Stream size                              : 116 MiB (5%)
Source stream size                       : 116 MiB (5%)
Language                                 : Russian
Default                                  : Yes
Alternate group                          : 1
Encoded date                             : UTC 2016-12-08 17:36:34
Tagged date                              : UTC 2016-12-08 17:43:52

Audio #2
ID                                       : 3
Format                                   : AAC
Format/Info                              : Advanced Audio Codec
Format profile                           : LC
Codec ID                                 : 40
Duration                                 : 2 h 6 min
Source duration                          : 2 h 6 min
Bit rate mode                            : Variable
Bit rate                                 : 128 kb/s
Maximum bit rate                         : 132 kb/s
Channel(s)                               : 2 channels
Channel positions                        : Front: L R
Sampling rate                            : 48.0 kHz
Frame rate                               : 46.875 FPS (1024 spf)
Compression mode                         : Lossy
Stream size                              : 116 MiB (5%)
Source stream size                       : 116 MiB (5%)
Language                                 : English
Default                                  : No
Alternate group                          : 1
Encoded date                             : UTC 2016-12-08 17:36:34
Tagged date                              : UTC 2016-12-08 17:43:52

Text #1
ID                                       : 4
Format                                   : Timed Text
Muxing mode                              : sbtl
Codec ID                                 : tx3g
Duration                                 : 2 h 6 min
Bit rate mode                            : Variable
Bit rate                                 : 68 b/s
Stream size                              : 62.9 KiB (0%)
Language                                 : Russian
Default                                  : Yes
Forced                                   : No
Alternate group                          : 2
Encoded date                             : UTC 2016-12-08 17:36:34
Tagged date                              : UTC 2016-12-08 17:43:52

Text #2
ID                                       : 5
Format                                   : Timed Text
Muxing mode                              : sbtl
Codec ID                                 : tx3g
Duration                                 : 2 h 0 min
Bit rate mode                            : Variable
Bit rate                                 : 50 b/s
Stream size                              : 44.5 KiB (0%)
Language                                 : English
Default                                  : No
Forced                                   : No
Alternate group                          : 2
Encoded date                             : UTC 2016-12-08 17:36:34
Tagged date                              : UTC 2016-12-08 17:43:53

Menu
ID                                       : 6
Codec ID                                 : text
Duration                                 : 2 h 6 min
Language                                 : English
Encoded date                             : UTC 2016-12-08 17:43:53
Tagged date                              : UTC 2016-12-08 17:43:53
Bit rate mode                            : CBR
Menu For                                 : 1
00:00:00.000                             : Chapter 01
00:03:40.803                             : Chapter 02
00:08:38.017                             : Chapter 03
00:13:06.827                             : Chapter 04
00:15:26.550                             : Chapter 05
00:19:47.477                             : Chapter 06
00:23:23.652                             : Chapter 07
00:27:47.040                             : Chapter 08
00:31:06.447                             : Chapter 09
00:34:36.783                             : Chapter 10
00:39:34.997                             : Chapter 11
00:42:42.810                             : Chapter 12
00:46:05.637                             : Chapter 13
00:48:36.496                             : Chapter 14
00:54:16.461                             : Chapter 15
00:57:21.479                             : Chapter 16
01:02:03.261                             : Chapter 17
01:08:20.846                             : Chapter 18
01:14:29.005                             : Chapter 19
01:18:54.062                             : Chapter 20
01:24:15.300                             : Chapter 21
01:28:42.442                             : Chapter 22
01:33:11.752                             : Chapter 23
01:36:29.033                             : Chapter 24
01:40:43.787                             : Chapter 25
01:46:09.236                             : Chapter 26
01:53:35.308                             : Chapter 27
02:00:34.393                             : Chapter 28


Скриншоты:



Время раздачи: 24/7 (круглосуточно) (до появления первых 3-5 скачавших)
 
Не забывайте говорить Спасибо. Не уходите с раздачи!   
Торрент: Зарегистрирован [09 дек 2016, 12:37] Для скачивания .torrent
необходима регистрация
Или скачать с помощью
MediaGet
Статус:
Проверен
 
.torrent скачан: 0 раз
Хэш: 8a7a7b91d0e4fb74f3f7471ea69eaad33b006688
Размер: 2.18 ГБ (2 344 014 555 байт)
Стать Автором раздачи
 
 
Раздал: 100 ГБ
Скачал: 0 байт
Ратио: Seed.
Сообщения: 94012
Зарегистрирован: 09 апр 2015, 22:31


  • Похожие торренты
    Ответы
    Просмотры
    Последнее сообщение

Вернуться в Видео для мобильных устройств

Ресурс не предоставляет электронные версии произведений, а занимается лишь коллекционированием и каталогизацией ссылок, присылаемых и публикуемых на форуме нашими читателями. Если вы являетесь правообладателем какого-либо представленного материала и не желаете чтобы ссылка на него находилась в нашем каталоге, свяжитесь с нами и мы незамедлительно удалим её. Файлы для обмена на трекере предоставлены пользователями сайта, и администрация не несёт ответственности за их содержание. Просьба не заливать файлы, защищенные авторскими правами, а также файлы нелегального содержания!
cron