Морган / Morgan (2016) HDRip [H.264] [MP4|1024x428]

 
 Статистика раздачи 
Размер: 1.58 ГБ   |  Зарегистрирован: 08 дек 2016, 22:08   |   .torrent скачан: 0 раз
Сидеров: 1  [ 0 байт/сек ]     Личеров: 0  [ 0 байт/сек ]  
  

Морган / Morgan (2016) HDRip [H.264] [MP4|1024x428]

Сообщение explosiveone » 08 дек 2016, 22:08

Морган / Morgan (2016) HDRip

«Оно не должно выбраться»

Производство: США / Scott Free Productions
Жанр: Ужасы, Фантастика, Триллер, Драма, Детектив

Режиссер: Люк Скотт
Актеры: Кейт Мара, Аня Тейлор-Джой, Роуз Лесли, Майкл Йар, Тоби Джонс, Крис Салливан, Бойд Холбрук, Винетт Робинсон, Мишель Йео, Брайан Кокс

Описание:
Сотрудница по устранению аварий отправляется в отдаленный секретный филиал, где должна расследовать и оценить потери от ужасной катастрофы. На месте она узнает, что случившееся было вызвано, казалось бы, невинным «человеком», чье существование само по себе является опасной тайной.


Возраст: 18+ (зрителям, достигшим 18 лет. запрещено для детей)
Рейтинг MPAA: R (лицам до 17 лет обязательно присутствие взрослого)

Релиз от: NNMClub
Продолжительность: 01:31:52
Качество видео: HDRip
Перевод: Дублированный - (iTunes)
Язык субтитров: Русский, Английский

Видео: AVC/H.264 (Main@L3.1), 1024x428 (2.40:1), 2200 Кбит/сек
Аудио #1: AAC, 2 канала, 128 Кбит/сек - русский (дублированный)
Аудио #2: AAC, 2 канала, 128 Кбит/сек - английский
Код:
General
Complete name                            : C:\DGI\Morgan.2016.576p.HDRip.AAC.h264.NNMclub.mp4
Format                                   : MPEG-4
Format profile                           : Base Media / Version 2
Codec ID                                 : mp42 (mp42/isom)
File size                                : 1.58 GiB
Duration                                 : 1 h 31 min
Overall bit rate mode                    : Variable
Overall bit rate                         : 2 463 kb/s
Movie name                               : Morgan
Performer                                : Luke Scott
Director                                 : Luke Scott
Actor                                    : Kate Mara / Anya Taylor-Joy / Toby Jones / Rose Leslie / Boyd Holbrook / Michelle Yeoh / Jennifer Jason Leigh / Paul Giamatti
Genre                                    : Thriller
ContentType                              : Short Film
Description                              : A corporate troubleshooter is sent to investigate a terrifying accident that was triggered by a
Recorded date                            : 2016-09-02
Encoded date                             : UTC 2016-12-08 06:52:39
Tagged date                              : UTC 2016-12-08 07:16:13
Copyright                                : © 2016 Twentieth Century Fox Film Corporation
Cover                                    : Yes
LongDescription                          : A corporate troubleshooter is sent to investigate a terrifying accident that was triggered by a seemingly innocent “human” who possesses mystery of both infinite promise and incalculable danger.
AppleStoreCountry                        : United States
AppleStoreCatalogID                      : 1146706324
ContentRating                            : mpaa|R|400|

Video
ID                                       : 1
Format                                   : AVC
Format/Info                              : Advanced Video Codec
Format profile                           :
Format settings, CABAC                   : Yes
Format settings, ReFrames                : 3 frames
Codec ID                                 : avc1
Codec ID/Info                            : Advanced Video Coding
Duration                                 : 1 h 31 min
Bit rate                                 : 2 200 kb/s
Width                                    : 1 024 pixels
Height                                   : 428 pixels
Display aspect ratio                     : 2.40:1
Frame rate mode                          : Variable
Frame rate                               : 23.976 (24000/1001) FPS
Minimum frame rate                       : 23.810 FPS
Maximum frame rate                       : 24.390 FPS
Color space                              : YUV
Chroma subsampling                       : 4:2:0
Bit depth                                : 8 bits
Scan type                                : Progressive
Bits/(Pixel*Frame)                       : 0.209
Stream size                              : 1.41 GiB (89%)
Writing library                          : x264 core 148 r2721+55 e19946b t_mod_Custom [8-bit@all X86_64]
Encoding settings                        : cabac=1 / ref=3 / deblock=1:-3:-3 / analyse=0x1:0x111 / me=umh / subme=7 / psy=1 / fade_compensate=0.00 / psy_rd=1.00:0.20 / mixed_ref=1 / me_range=32 / chroma_me=1 / trellis=2 / 8x8dct=0 / cqm=0 / deadzone=21,11 / fast_pskip=0 / chroma_qp_offset=-3 / threads=12 / lookahead_threads=2 / sliced_threads=0 / nr=0 / decimate=0 / interlaced=0 / bluray_compat=0 / constrained_intra=0 / fgo=0 / bframes=3 / b_pyramid=1 / b_adapt=2 / b_bias=0 / direct=3 / weightb=1 / open_gop=0 / weightp=2 / keyint=240 / keyint_min=23 / scenecut=40 / intra_refresh=0 / rc_lookahead=50 / rc=2pass / mbtree=1 / bitrate=2200 / ratetol=1.0 / qcomp=0.60 / qpmin=0:0:0 / qpmax=69:69:69 / qpstep=4 / cplxblur=20.0 / qblur=0.5 / vbv_maxrate=10000 / vbv_bufsize=10000 / nal_hrd=none / filler=0 / ip_ratio=1.40 / aq=3:0.90 / aq-sensitivity=10.00 / aq-factor=1.00:1.00:1.00 / aq2=1:0.90 / aq2-sensitivity=15.00 / aq2-factor=1.00:1.00:1.00 / aq3=4:[0.50:0.50]:[0.50:0.50]:[0.50:0.50]:[0.50:0.50] / aq3-sensitivity=10.00 / aq3-factor=[1.00:1.00]:[1.00:1.00]:[1.00:1.00] / aq3-boundary=192:64:24
Encoded date                             : UTC 2016-12-08 06:52:39
Tagged date                              : UTC 2016-12-08 06:58:05
Color range                              : Limited
Color primaries                          : BT.709
Transfer characteristics                 : BT.709
Matrix coefficients                      : BT.709
Menus                                    : 8

Audio #1
ID                                       : 2
Format                                   : AAC
Format/Info                              : Advanced Audio Codec
Format profile                           : LC
Codec ID                                 : 40
Duration                                 : 1 h 31 min
Source duration                          : 1 h 31 min
Bit rate mode                            : Variable
Bit rate                                 : 128 kb/s
Maximum bit rate                         : 133 kb/s
Channel(s)                               : 2 channels
Channel positions                        : Front: L R
Sampling rate                            : 48.0 kHz
Frame rate                               : 46.875 FPS (1024 spf)
Compression mode                         : Lossy
Stream size                              : 84.1 MiB (5%)
Source stream size                       : 84.1 MiB (5%)
Language                                 : Russian
Default                                  : Yes
Alternate group                          : 1
Encoded date                             : UTC 2016-12-08 06:52:39
Tagged date                              : UTC 2016-12-08 06:58:05

Audio #2
ID                                       : 3
Format                                   : AAC
Format/Info                              : Advanced Audio Codec
Format profile                           : LC
Codec ID                                 : 40
Duration                                 : 1 h 31 min
Source duration                          : 1 h 31 min
Bit rate mode                            : Variable
Bit rate                                 : 128 kb/s
Maximum bit rate                         : 133 kb/s
Channel(s)                               : 2 channels
Channel positions                        : Front: L R
Sampling rate                            : 48.0 kHz
Frame rate                               : 46.875 FPS (1024 spf)
Compression mode                         : Lossy
Stream size                              : 84.1 MiB (5%)
Source stream size                       : 84.1 MiB (5%)
Language                                 : English
Default                                  : No
Alternate group                          : 1
Encoded date                             : UTC 2016-12-08 06:52:39
Tagged date                              : UTC 2016-12-08 06:58:05

Text #1
ID                                       : 4
Format                                   : Timed Text
Muxing mode                              : sbtl
Codec ID                                 : tx3g
Duration                                 : 1 h 31 min
Bit rate mode                            : Variable
Bit rate                                 : 1 b/s
Stream size                              : 1.00 KiB (0%)
Language                                 : Russian
Default                                  : Yes
Forced                                   : No
Alternate group                          : 2
Encoded date                             : UTC 2016-12-08 06:52:39
Tagged date                              : UTC 2016-12-08 06:58:05

Text #2
ID                                       : 5
Format                                   : Timed Text
Muxing mode                              : sbtl
Codec ID                                 : tx3g
Duration                                 : 1 h 31 min
Bit rate mode                            : Variable
Bit rate                                 : 78 b/s
Stream size                              : 52.3 KiB (0%)
Language                                 : Russian
Default                                  : No
Forced                                   : No
Alternate group                          : 2
Encoded date                             : UTC 2016-12-08 06:52:39
Tagged date                              : UTC 2016-12-08 06:58:05

Text #3
ID                                       : 6
Format                                   : Timed Text
Muxing mode                              : sbtl
Codec ID                                 : tx3g
Duration                                 : 1 h 6 min
Bit rate mode                            : Variable
Bit rate                                 : 1 b/s
Stream size                              : 428 Bytes (0%)
Language                                 : English
Default                                  : No
Forced                                   : No
Alternate group                          : 2
Encoded date                             : UTC 2016-12-08 06:52:39
Tagged date                              : UTC 2016-12-08 06:58:05

Text #4
ID                                       : 7
Format                                   : Timed Text
Muxing mode                              : sbtl
Codec ID                                 : tx3g
Duration                                 : 1 h 31 min
Bit rate mode                            : Variable
Bit rate                                 : 49 b/s
Stream size                              : 33.1 KiB (0%)
Language                                 : English
Default                                  : No
Forced                                   : No
Alternate group                          : 2
Encoded date                             : UTC 2016-12-08 06:52:39
Tagged date                              : UTC 2016-12-08 06:58:05

Menu
ID                                       : 8
Codec ID                                 : text
Duration                                 : 1 h 31 min
Language                                 : English
Encoded date                             : UTC 2016-12-08 06:58:05
Tagged date                              : UTC 2016-12-08 06:58:05
Bit rate mode                            : CBR
Menu For                                 : 1
00:00:00.000                             : 00:00:00.000
00:03:43.098                             : 00:03:43.098
00:07:22.400                             : 00:07:22.400
00:11:41.784                             : 00:11:41.784
00:16:04.338                             : 00:16:04.338
00:20:30.271                             : 00:20:30.271
00:25:36.326                             : 00:25:36.326
00:28:45.515                             : 00:28:45.515
00:34:20.267                             : 00:34:20.267
00:37:17.861                             : 00:37:17.861
00:40:46.110                             : 00:40:46.110
00:43:47.124                             : 00:43:47.124
00:48:14.225                             : 00:48:14.225
00:51:28.752                             : 00:51:28.752
00:54:45.991                             : 00:54:45.991
00:59:51.046                             : 00:59:51.046
01:03:44.403                             : 01:03:44.404
01:08:01.619                             : 01:08:01.619
01:11:43.758                             : 01:11:43.758
01:13:46.422                             : 01:13:46.422
01:17:03.702                             : 01:17:03.702
01:20:01.672                             : 01:20:01.672
01:22:32.531                             : 01:22:32.531
01:25:10.939                             : 01:25:10.939


Скриншоты:



Время раздачи: 24/7 (круглосуточно) (до появления первых 3-5 скачавших)
 
Не забывайте говорить Спасибо. Не уходите с раздачи!   
Торрент: Зарегистрирован [08 дек 2016, 22:08] Для скачивания .torrent
необходима регистрация
Или скачать с помощью
MediaGet
Статус:
Проверен
 
.torrent скачан: 0 раз
Хэш: 81ffd98d369f409a4d55ff16d0921d0b2e554e90
Размер: 1.58 ГБ (1 698 015 425 байт)
Стать Автором раздачи
 
 
Раздал: 100 ГБ
Скачал: 0 байт
Ратио: Seed.
Сообщения: 94059
Зарегистрирован: 09 апр 2015, 22:31


  • Похожие торренты
    Ответы
    Просмотры
    Последнее сообщение

Вернуться в Видео для мобильных устройств

Ресурс не предоставляет электронные версии произведений, а занимается лишь коллекционированием и каталогизацией ссылок, присылаемых и публикуемых на форуме нашими читателями. Если вы являетесь правообладателем какого-либо представленного материала и не желаете чтобы ссылка на него находилась в нашем каталоге, свяжитесь с нами и мы незамедлительно удалим её. Файлы для обмена на трекере предоставлены пользователями сайта, и администрация не несёт ответственности за их содержание. Просьба не заливать файлы, защищенные авторскими правами, а также файлы нелегального содержания!
cron