Лейтенант (2016) WEB-DLRip [H.264] [MP4|1024x576]

 
 Статистика раздачи 
Размер: 1.32 ГБ   |  Зарегистрирован: 08 дек 2016, 22:07   |   .torrent скачан: 2 раз
Сидеров: 1  [ 0 байт/сек ]     Личеров: 0  [ 0 байт/сек ]  
  

Лейтенант (2016) WEB-DLRip [H.264] [MP4|1024x576]

Сообщение explosiveone » 08 дек 2016, 22:07

Лейтенант (2016) WEB-DLRip


Производство: Россия / Кинокомпания СТВ
Жанр: Драма

Режиссер: Евгений Эпштейн
Актеры: Антон Левин, Виктор Забровский, Степан Румянцев, Сергей Бойков, Сергей Остапюк, Вячеслав Дергачев, Евгений Мендус, Александр Муштуков, Ярослав Лозяк

Описание:
Ноябрь, 1941 год. Группа солдат во главе с молодым лейтенантом Иваном Горчаковым отправляется на задание — взорвать артиллерийскую немецкую базу и остановить наступление немцев на Москву. За 48 часов им предстоит преодолеть 60 километров по открытому пространству. Сначала пешком, потом ползком. Во время этого сложнейшего пути важно не только выстоять, но и остаться людьми.



Релиз от: NNMClub
Продолжительность: 01:24:35
Качество видео: WEB-DLRip
Перевод: не требуется, русский - (iTunes)
Вид субтитров: Отсутствуют

Видео: AVC/H.264 (Main@L3.1), 1024x576 (16:9), 2100 Кбит/сек
Аудио #1: AAC, 2 канала, 128 Кбит/сек - русский
Код:
General
Complete name                            : C:\DGI\Lieutenant.2016.576p.WEB-DLRip.AAC.h264.NNMclub.mp4
Format                                   : MPEG-4
Format profile                           : Base Media / Version 2
Codec ID                                 : mp42 (mp42/isom)
File size                                : 1.32 GiB
Duration                                 : 1 h 24 min
Overall bit rate mode                    : Variable
Overall bit rate                         : 2 234 kb/s
Movie name                               : Лейтенант
Performer                                : Евгений Эпштейн
Director                                 : Евгений Эпштейн
Actor                                    : Антон Левин / Сергей Бойков / Степан Румянцев / Евгений Мендус / Вячеслав Деркачев
Genre                                    : Русское кино
ContentType                              : Short Film
Description                              : Ноябрь, 1941 год. Группа солдат во главе с молодым лейтенантом Иваном Горчаковым отправляется на
Recorded date                            : 2016-11-10
Encoded date                             : UTC 2016-12-08 17:07:41
Tagged date                              : UTC 2016-12-08 17:32:23
Copyright                                : © 2016 Кинокомпания СТВ
Cover                                    : Yes
LongDescription                          : Ноябрь, 1941 год. Группа солдат во главе с молодым лейтенантом Иваном Горчаковым отправляется на задание — взорвать артиллерийскую немецкую базу и остановить наступление немцев на Москву. За 48 часов им предстоит преодолеть 60 километров по открытому пространству. Сначала пешком, потом ползком. Во время этого сложнейшего пути важно не только выстоять, но и остаться людьми.
AppleStoreCountry                        : Unknown Country
AppleStoreCatalogID                      : 1170183696
ContentRating                            : ru-movie|12+|200|

Video
ID                                       : 1
Format                                   : AVC
Format/Info                              : Advanced Video Codec
Format profile                           :
Format settings, CABAC                   : Yes
Format settings, ReFrames                : 3 frames
Codec ID                                 : avc1
Codec ID/Info                            : Advanced Video Coding
Duration                                 : 1 h 24 min
Bit rate                                 : 2 100 kb/s
Width                                    : 1 024 pixels
Height                                   : 576 pixels
Display aspect ratio                     : 16:9
Frame rate mode                          : Variable
Frame rate                               : 24.000 FPS
Minimum frame rate                       : 23.810 FPS
Maximum frame rate                       : 24.390 FPS
Color space                              : YUV
Chroma subsampling                       : 4:2:0
Bit depth                                : 8 bits
Scan type                                : Progressive
Bits/(Pixel*Frame)                       : 0.148
Stream size                              : 1.24 GiB (94%)
Writing library                          : x264 core 148 r2744+55 950084e t_mod_Custom [8-bit@all X86_64]
Encoding settings                        : cabac=1 / ref=3 / deblock=1:-3:-3 / analyse=0x1:0x111 / me=umh / subme=7 / psy=1 / fade_compensate=0.00 / psy_rd=1.00:0.20 / mixed_ref=1 / me_range=32 / chroma_me=1 / trellis=2 / 8x8dct=0 / cqm=0 / deadzone=21,11 / fast_pskip=0 / chroma_qp_offset=-3 / threads=12 / lookahead_threads=2 / sliced_threads=0 / nr=0 / decimate=0 / interlaced=0 / bluray_compat=0 / constrained_intra=0 / fgo=0 / bframes=2 / b_pyramid=1 / b_adapt=2 / b_bias=0 / direct=3 / weightb=1 / open_gop=0 / weightp=2 / keyint=240 / keyint_min=24 / scenecut=40 / intra_refresh=0 / rc_lookahead=50 / rc=2pass / mbtree=1 / bitrate=2100 / ratetol=1.0 / qcomp=0.60 / qpmin=0:0:0 / qpmax=69:69:69 / qpstep=4 / cplxblur=20.0 / qblur=0.5 / vbv_maxrate=10000 / vbv_bufsize=10000 / nal_hrd=none / filler=0 / ip_ratio=1.40 / aq=3:0.90 / aq-sensitivity=10.00 / aq-factor=1.00:1.00:1.00 / aq2=1:0.80 / aq2-sensitivity=15.00 / aq2-factor=1.00:1.00:1.00 / aq3=4:[0.50:0.50]:[0.50:0.50]:[0.50:0.50]:[0.50:0.50] / aq3-sensitivity=10.00 / aq3-factor=[1.00:1.00]:[1.00:1.00]:[1.00:1.00] / aq3-boundary=192:64:24
Language                                 : Russian
Encoded date                             : UTC 2016-12-08 17:07:41
Tagged date                              : UTC 2016-12-08 17:11:38
Color range                              : Limited
Color primaries                          : BT.709
Transfer characteristics                 : BT.709
Matrix coefficients                      : BT.709
Menus                                    : 3

Audio
ID                                       : 2
Format                                   : AAC
Format/Info                              : Advanced Audio Codec
Format profile                           : LC
Codec ID                                 : 40
Duration                                 : 1 h 24 min
Source duration                          : 1 h 24 min
Bit rate mode                            : Variable
Bit rate                                 : 128 kb/s
Maximum bit rate                         : 133 kb/s
Channel(s)                               : 2 channels
Channel positions                        : Front: L R
Sampling rate                            : 48.0 kHz
Frame rate                               : 46.875 FPS (1024 spf)
Compression mode                         : Lossy
Stream size                              : 77.4 MiB (6%)
Source stream size                       : 77.4 MiB (6%)
Language                                 : Russian
Default                                  : Yes
Alternate group                          : 1
Encoded date                             : UTC 2016-12-08 17:07:41
Tagged date                              : UTC 2016-12-08 17:11:38

Menu
ID                                       : 3
Codec ID                                 : text
Duration                                 : 1 h 24 min
Language                                 : English
Encoded date                             : UTC 2016-12-08 17:11:38
Tagged date                              : UTC 2016-12-08 17:11:38
Menu For                                 : 1
00:00:00.000                             : Глава 1
00:07:12.291                             : Глава 2
00:13:40.707                             : Глава 3
00:19:00.707                             : Глава 4
00:24:20.748                             : Глава 5
00:30:43.789                             : Глава 6
00:37:16.205                             : Глава 7
00:43:40.205                             : Глава 8
00:50:52.705                             : Глава 9
00:58:19.413                             : Глава 10
01:04:29.079                             : Глава 11
01:10:08.704                             : Глава 12
01:15:44.870                             : Глава 13
Bit rate mode                            : VBR


Скриншоты:



Время раздачи: 24/7 (круглосуточно) (до появления первых 3-5 скачавших)
 
Не забывайте говорить Спасибо. Не уходите с раздачи!   
Торрент: Зарегистрирован [08 дек 2016, 22:07] Для скачивания .torrent
необходима регистрация
Или скачать с помощью
MediaGet
Статус:
Проверен
 
.torrent скачан: 2 раз
Хэш: 4ffb5cef9eae3c6e8a91297a03a5686b7063de30
Размер: 1.32 ГБ (1 417 328 874 байт)
Стать Автором раздачи
 
 
Раздал: 100 ГБ
Скачал: 0 байт
Ратио: Seed.
Сообщения: 94005
Зарегистрирован: 09 апр 2015, 22:31


  • Похожие торренты
    Ответы
    Просмотры
    Последнее сообщение

Вернуться в Видео для мобильных устройств

Ресурс не предоставляет электронные версии произведений, а занимается лишь коллекционированием и каталогизацией ссылок, присылаемых и публикуемых на форуме нашими читателями. Если вы являетесь правообладателем какого-либо представленного материала и не желаете чтобы ссылка на него находилась в нашем каталоге, свяжитесь с нами и мы незамедлительно удалим её. Файлы для обмена на трекере предоставлены пользователями сайта, и администрация не несёт ответственности за их содержание. Просьба не заливать файлы, защищенные авторскими правами, а также файлы нелегального содержания!
cron