BBC: Планета Земля 2 / Planet Earth II (2016) BDRip [H.264/1800р] (серия 1 из 6) (обновляемая)

 
 Статистика раздачи 
Размер: 7.09 ГБ   |  Зарегистрирован: 08 дек 2016, 14:25   |   .torrent скачан: 1 раз
Сидеров: 1  [ 0 байт/сек ]     Личеров: 0  [ 0 байт/сек ]  
  

BBC: Планета Земля 2 / Planet Earth II (2016) BDRip [H.264/1800р] (серия 1 из 6) (обновляемая)

Сообщение explosiveone » 08 дек 2016, 14:25

Планета Земля 2 / Planet Earth II (2016) BDRip [H.264/1800р] (серия 1 из 6)

Страна: Великобритания
Режиссер / Телекомпания: Джастин Андерсон, BBC America, BBC Television Centre
Жанр: Документальный, научно-познавательный, природа, флора, фауна

Описание:
Дэвид Аттенборо возвращается с этим захватывающим документальным сериалом, показывая дикую жизнь на Планете Земля. Невероятные по красоте пейзажи и самые заповедные и малоизученные уголки нашей планеты. Беспрецедентный для документального фильма бюджет и еще больший масштаб. Новейшие режимы съемки и детализации картинки, сделали возможным показать великолепие нашей природы во всех подробностях.



Ведущий: Дэвид Аттенборо

Продолжительность: ~00:58:00 серия
Качество видео: BDRip
Перевод: Двухголосый закадровый, профессиональный (студия «Омикрон»)
Вид субтитров: Вшитые, отключаемые (SDH)
Язык субтитров: Английский

Видео: MPEG-4 AVC/H.264, 1920x1080 (16:9), ~14,3 Мбит/сек
Аудио #1: DTS, 6 ch, 1509 kbps (Русский)
Аудио #2: DTS, 6 ch, 1509 kbps (Английский)
Код: Общее
Уникальный идентификатор                 : 245384144977255618660585169320532807441 (0xB89B446BBCFF407AA1389D754EE08F11)
Полное имя                               : Q:\01. Острова. Islands.mkv
Формат                                   : Matroska
Версия формата                           : Version 4 / Version 2
Размер файла                             : 7,09 Гбайт
Продолжительность                        : 58 м. 35 с.
Общий поток                              : 17,3 Мбит/сек
Название фильма                          : Create by DeTorquemada for HDCLUB
Дата кодирования                         : UTC 2016-12-08 05:10:19
Программа кодирования                    : mkvmerge v8.9.0 ('Father Daughter') 32bit
Библиотека кодирования                   : libebml v1.3.3 + libmatroska v1.4.4

Видео
Идентификатор                            : 1
Формат                                   : AVC
Формат/Информация                        : Advanced Video Codec
Профиль формата                          :
Параметр CABAC формата                   : Да
Параметр ReFrames формата                : 4 кадра
Идентификатор кодека                     : V_MPEG4/ISO/AVC
Продолжительность                        : 58 м. 35 с.
Битрейт                                  : 14,3 Мбит/сек
Ширина                                   : 1920 пикселей
Высота                                   : 1080 пикселей
Соотношение сторон                       : 16:9
Режим частоты кадров                     : Постоянный
Частота кадров                           : 25,000 кадров/сек
Цветовое пространство                    : YUV
Субдискретизация насыщенности            : 4:2:0
Битовая глубина                          : 8 бит
Тип развёртки                            : Прогрессивная
Бит/(Пиксели*Кадры)                      : 0.276
Размер потока                            : 5,86 Гбайт (83%)
Заголовок                                : Планета Земля 2. Эпизод 1: Острова / Planet Earth II. Episode 1: Islands (2016)- Realise for HDCLUB
Библиотека кодирования                   : x264 core 148 r2721 72d53ab
Настройки программы                      : cabac=1 / ref=4 / deblock=1:-3:-3 / analyse=0x3:0x113 / me=umh / subme=10 / psy=1 / psy_rd=1.00:0.00 / mixed_ref=1 / me_range=32 / chroma_me=1 / trellis=2 / 8x8dct=1 / cqm=0 / deadzone=21,11 / fast_pskip=1 / chroma_qp_offset=-2 / threads=6 / lookahead_threads=1 / sliced_threads=0 / nr=0 / decimate=1 / interlaced=0 / bluray_compat=0 / constrained_intra=0 / bframes=8 / b_pyramid=2 / b_adapt=2 / b_bias=0 / direct=1 / weightb=1 / open_gop=0 / weightp=2 / keyint=250 / keyint_min=25 / scenecut=40 / intra_refresh=0 / rc_lookahead=40 / rc=crf / mbtree=0 / crf=18.0 / qcomp=0.60 / qpmin=0 / qpmax=69 / qpstep=4 / vbv_maxrate=50000 / vbv_bufsize=62500 / crf_max=0.0 / nal_hrd=none / filler=0 / ip_ratio=1.40 / pb_ratio=1.30 / aq=1:0.80
Язык                                     : English
Default                                  : Да
Forced                                   : Нет
Цветовой диапазон                        : Limited
Коэффициенты матрицы                     : BT.709

Аудио #1
Идентификатор                            : 2
Формат                                   : DTS
Формат/Информация                        : Digital Theater Systems
Режим                                    : 16
Параметр Endianness формата              : Big
Идентификатор кодека                     : A_DTS
Продолжительность                        : 58 м. 35 с.
Вид битрейта                             : Постоянный
Битрейт                                  : 1509 Кбит/сек
Каналы                                   : 6 каналов
Расположение каналов                     : Front: L C R, Side: L R, LFE
Частота                                  : 48,0 КГц
Частота кадров                           : 93,750 кадра/сек (512 spf)
Битовая глубина                          : 16 бит
Метод сжатия                             : С потерями
Размер потока                            : 632 Мбайт (9%)
Заголовок                                : DTS 5.1 @ 1509 kbps - Двухголосый закадровый, студия «Омикрон»
Язык                                     : Russian
Default                                  : Да
Forced                                   : Нет

Аудио #2
Идентификатор                            : 3
Формат                                   : DTS
Формат/Информация                        : Digital Theater Systems
Режим                                    : 16
Параметр Endianness формата              : Big
Идентификатор кодека                     : A_DTS
Продолжительность                        : 58 м. 35 с.
Вид битрейта                             : Постоянный
Битрейт                                  : 1509 Кбит/сек
Каналы                                   : 6 каналов
Расположение каналов                     : Front: L C R, Side: L R, LFE
Частота                                  : 48,0 КГц
Частота кадров                           : 93,750 кадра/сек (512 spf)
Битовая глубина                          : 16 бит
Метод сжатия                             : С потерями
Размер потока                            : 632 Мбайт (9%)
Заголовок                                : DTS 5.1 @ 1509 kbps - Narrated by David Attenborough
Язык                                     : English
Default                                  : Нет
Forced                                   : Нет

Текст
Идентификатор                            : 4
Формат                                   : UTF-8
Идентификатор кодека                     : S_TEXT/UTF8
Идентификатор кодека/Информация          : UTF-8 Plain Text
Продолжительность                        : 57 м. 47 с.
Битрейт                                  : 44 бит/сек
Count of elements                        : 467
Размер потока                            : 19,0 Кбайт (0%)
Заголовок                                : Subtitles/Captions (SDH)
Язык                                     : English
Default                                  : Нет
Forced                                   : Нет

Меню
00:00:00.000                             : en:
00:11:55.678                             : en:
00:18:03.000                             : en:
00:32:22.000                             : en:
00:41:18.679                             : en:
00:49:56.559                             : en:

01. Острова / Islands
Раздача ведётся путём добавления новых серий; при каждом добавлении создаётся новый торрент. Чтобы начать докачку новой серии, пользователям необходимо сделать следующее:
(1) остановить скачивание,
(2) удалить старый торрент у себя из клиента (старые серии удалять не надо),
(3) скачать новый торрент и запустить его у себя в клиенте вместо старого, при этом указать клиенту путь в старую папку куда и должно происходить скачивание новых серий.

Ваш клиент при этом должен произвести хеширование (проверку) старой папки (если не производит сам - помогите ему сделать это), и будет докачивать только те серии которых у вас ещё нет. Старые серии при этом не удаляются, а продолжают раздаваться!

Eсли вы уже удалили старые серии, то предотвратить повторную закачку старых серий можно, отжав галочку в соответствующих местах при запуске нового торрента. По возможности, желательно не удалять старые серии как можно дольше чтобы релизёр не столько продолжал раздавать старые серии, а смог сконцентрироваться на новых.
Озвучено студией «Омикрон» специально для HDCLUB, задействовано 2 актера.
Русская дорожка получена наложением чистого голоса. Перевод Виктора Петренко.
Перевод и озвучивание осуществлено в рамках сервиса от HDCLUB "Озвучивание".

Скриншоты:




Время раздачи: 24/7. До первых 10 скачавших
 
Не забывайте говорить Спасибо. Не уходите с раздачи!   
Торрент: Зарегистрирован [08 дек 2016, 14:25] Для скачивания .torrent
необходима регистрация
Или скачать с помощью
MediaGet
Статус:
Проверен
 
.torrent скачан: 1 раз
Хэш: f6e9ab8ca0210166b56af980bc9448df860b7bf6
Размер: 7.09 ГБ (7 615 186 554 байт)
Стать Автором раздачи
 
 
Раздал: 100 ГБ
Скачал: 0 байт
Ратио: Seed.
Сообщения: 82288
Зарегистрирован: 09 апр 2015, 22:31


  • Похожие торренты
    Ответы
    Просмотры
    Последнее сообщение

Вернуться в BBC

Кто сейчас на конференции

Сейчас эту тему просматривают: нет зарегистрированных пользователей и гости: 1

Ресурс не предоставляет электронные версии произведений, а занимается лишь коллекционированием и каталогизацией ссылок, присылаемых и публикуемых на форуме нашими читателями. Если вы являетесь правообладателем какого-либо представленного материала и не желаете чтобы ссылка на него находилась в нашем каталоге, свяжитесь с нами и мы незамедлительно удалим её. Файлы для обмена на трекере предоставлены пользователями сайта, и администрация не несёт ответственности за их содержание. Просьба не заливать файлы, защищенные авторскими правами, а также файлы нелегального содержания!