Ослиная шкура (1982) DVD9

 
 Статистика раздачи 
Размер: 6.57 ГБ   |  Зарегистрирован: 07 дек 2016, 15:36   |   .torrent скачан: 0 раз
Сидеров: 1  [ 0 байт/сек ]     Личеров: 0  [ 0 байт/сек ]  
  

Ослиная шкура (1982) DVD9

Сообщение explosiveone » 07 дек 2016, 15:36

Ослиная шкура (1982) DVD9

Производство: CCCP "Ленфильм"
Жанр: Фэнтези, Мелодрама, Комедия, Семейный

Режиссер: Надежда Кошеверова
Актеры: Владимир Этуш, Светлана Немоляева, Вера Новикова, Александр Галибин, Зиновий Гердт, Татьяна Пельтцер, Валентина Панина, Николай Караченцов, Людмила Макарова, Сергей Паршин

Описание:
«Ослиной шкурой» прозвали принцессу Терезу, которая убежала из-под венца, потому что любила другого — бедного принца Жака. Теперь она вынуждена скитаться в образе нищенки, терпеть унижения и прятаться от полиции. Но у нее есть заколдованный перстень с изумрудом. С помощью него она спасает жизнь Жаку.


Возраст: 12+ (зрителям, достигшим 12 лет)
Дата российской премьеры: 29 января 1984
Дата выхода DVD/Blu-ray релиза: 5 апреля 2003, «Ruscico»

Релиз от: Ruscico

Продолжительность: 01:19:47
Качество видео: DVD9
Реклама: нет
Дополнительные материалы: есть

Видео: MPEG-2, 720x576, ~9 627 Kbps
Аудио#1: Russian (Dolby AC3, 6 ch)
Аудио#2: English (Dolby AC3, 6 ch) закадровый перевод
Аудио#3: Francais (Dolby AC3, 6 ch) закадровый перевод

Субтитры:Russian, English, Francais, Espanol, Italiano, Nederlands, Japanese, Svenska, Deutsch, Portugues, Hebrew, Arabic, Chinese
Код: Выделить всё
Format                      : MPEG-PS
File size                   : 1 024 MiB
Duration                    : 14mn 52s
Overall bit rate            : 9 627 Kbps

Video
ID                          : 224 (0xE0)
Format                      : MPEG Video
Format version              : Version 2
Format profile              : Main@Main
Format settings, BVOP       : Yes
Format settings, Matrix     : Custom
Format settings, GOP        : M=2, N=4
Format settings, picture st : Frame
Duration                    : 14mn 52s
Bit rate                    : 8 091 Kbps
Maximum bit rate            : 8 000 Kbps
Width                       : 720 pixels
Height                      : 576 pixels
Display aspect ratio        : 16:9
Frame rate                  : 25.000 fps
Standard                    : PAL
Color space                 : YUV
Chroma subsampling          : 4:2:0
Bit depth                   : 8 bits
Scan type                   : Interlaced
Scan order                  : Top Field First
Compression mode            : Lossy
Bits/(Pixel*Frame)          : 0.780
Time code of first frame    : 00:15:52:13
Time code source            : Group of pictures header
GOP, Open/Closed            : Closed
Stream size                 : 861 MiB (84%)

Audio #1
ID                          : 189 (0xBD)-128 (0x80)
Format                      : AC-3
Format/Info                 : Audio Coding 3
Mode extension              : CM (complete main)
Format settings, Endianness : Big
Muxing mode                 : DVD-Video
Duration                    : 14mn 52s
Bit rate mode               : Constant
Bit rate                    : 448 Kbps
Channel(s)                  : 6 channels
Channel positions           : Front: L C R, Side: L R, LFE
Sampling rate               : 48.0 KHz
Frame rate                  : 31.250 fps (1536 spf)
Compression mode            : Lossy
Delay relative to video     : -200ms
Stream size                 : 47.6 MiB (5%)

Audio #2
ID                          : 189 (0xBD)-129 (0x81)
Format                      : AC-3
Format/Info                 : Audio Coding 3
Mode extension              : CM (complete main)
Format settings, Endianness : Big
Muxing mode                 : DVD-Video
Duration                    : 14mn 52s
Bit rate mode               : Constant
Bit rate                    : 448 Kbps
Channel(s)                  : 6 channels
Channel positions           : Front: L C R, Side: L R, LFE
Sampling rate               : 48.0 KHz
Frame rate                  : 31.250 fps (1536 spf)
Compression mode            : Lossy
Delay relative to video     : -200ms
Stream size                 : 47.6 MiB (5%)

Audio #3
ID                          : 189 (0xBD)-130 (0x82)
Format                      : AC-3
Format/Info                 : Audio Coding 3
Mode extension              : CM (complete main)
Format settings, Endianness : Big
Muxing mode                 : DVD-Video
Duration                    : 14mn 52s
Bit rate mode               : Constant
Bit rate                    : 448 Kbps
Channel(s)                  : 6 channels
Channel positions           : Front: L C R, Side: L R, LFE
Sampling rate               : 48.0 KHz
Frame rate                  : 31.250 fps (1536 spf)
Compression mode            : Lossy
Delay relative to video     : -200ms
Stream size                 : 47.6 MiB (5%)

Text #1
ID                          : 189 (0xBD)-32 (0x20)
Format                      : RLE
Format/Info                 : Run-length encoding
Muxing mode                 : DVD-Video
Duration                    : 14mn 47s
Delay relative to video     : 2s 200ms

Text #2
ID                          : 189 (0xBD)-33 (0x21)
Format                      : RLE
Format/Info                 : Run-length encoding
Muxing mode                 : DVD-Video
Duration                    : 14mn 47s
Delay relative to video     : 2s 200ms

Text #3
ID                          : 189 (0xBD)-34 (0x22)
Format                      : RLE
Format/Info                 : Run-length encoding
Muxing mode                 : DVD-Video
Duration                    : 14mn 47s
Delay relative to video     : 2s 200ms

Text #4
ID                          : 189 (0xBD)-35 (0x23)
Format                      : RLE
Format/Info                 : Run-length encoding
Muxing mode                 : DVD-Video
Duration                    : 14mn 47s
Delay relative to video     : 2s 200ms

Text #5
ID                          : 189 (0xBD)-36 (0x24)
Format                      : RLE
Format/Info                 : Run-length encoding
Muxing mode                 : DVD-Video
Duration                    : 14mn 47s
Delay relative to video     : 2s 200ms

Text #6
ID                          : 189 (0xBD)-37 (0x25)
Format                      : RLE
Format/Info                 : Run-length encoding
Muxing mode                 : DVD-Video
Duration                    : 14mn 47s
Delay relative to video     : 2s 200ms

Text #7
ID                          : 189 (0xBD)-38 (0x26)
Format                      : RLE
Format/Info                 : Run-length encoding
Muxing mode                 : DVD-Video
Duration                    : 14mn 47s
Delay relative to video     : 2s 200ms

Text #8
ID                          : 189 (0xBD)-39 (0x27)
Format                      : RLE
Format/Info                 : Run-length encoding
Muxing mode                 : DVD-Video
Duration                    : 14mn 47s
Delay relative to video     : 2s 200ms

Text #9
ID                          : 189 (0xBD)-40 (0x28)
Format                      : RLE
Format/Info                 : Run-length encoding
Muxing mode                 : DVD-Video
Duration                    : 14mn 47s
Delay relative to video     : 2s 200ms

Text #10
ID                          : 189 (0xBD)-41 (0x29)
Format                      : RLE
Format/Info                 : Run-length encoding
Muxing mode                 : DVD-Video
Duration                    : 14mn 47s
Delay relative to video     : 2s 200ms

Text #11
ID                          : 189 (0xBD)-42 (0x2A)
Format                      : RLE
Format/Info                 : Run-length encoding
Muxing mode                 : DVD-Video
Duration                    : 14mn 47s
Delay relative to video     : 2s 200ms

Text #12
ID                          : 189 (0xBD)-43 (0x2B)
Format                      : RLE
Format/Info                 : Run-length encoding
Muxing mode                 : DVD-Video
Duration                    : 14mn 47s
Delay relative to video     : 2s 200ms

Text #13
ID                          : 189 (0xBD)-44 (0x2C)
Format                      : RLE
Format/Info                 : Run-length encoding
Muxing mode                 : DVD-Video
Duration                    : 14mn 47s
Delay relative to video     : 2s 200ms

Menu
Duration                    : 14mn 47s
Title: OSLINAYASHKURA
Size: 6.57 Gb ( 6 890 706,00 KBytes ) - DVD-9
Enabled regions: 1, 2, 3, 4, 5, 6, 7, 8

VTS_01 : Play Length: 00:00:40
Video: PAL 4:3 (720x576) VBR

VTS_02 : Play Length: 00:00:21
Video: PAL 4:3 (720x576) VBR
Audio: English (Dolby AC3, 6 ch)

VTS_03 : Play Length: 01:19:46
Video: PAL 16:9 (720x576) VBR, Auto Letterboxed
Audio: Russian (Dolby AC3, 6 ch) English (Dolby AC3, 6 ch) Francais (Dolby AC3, 6 ch)
Subtitles: Russian, English, Francais, Espanol, Italiano, Nederlands, Japanese, Svenska, Deutsch, Portugues, Hebrew,
Arabic, Chinese

VTS_04 : Play Length: 00:06:21
Video: PAL 4:3 (720x576) VBR
Audio: Russian (Dolby AC3, 6 ch)
Subtitles: English, Francais, Nederlands, Espanol, Italiano

VTS_05 : Play Length: 00:10:19
Video: PAL 4:3 (720x576) VBR
Audio: Russian (Dolby AC3, 1 ch)
Subtitles: English, Francais, Nederlands, Espanol, Italiano

* Menus Information *

VIDEO_TS Menu
Video: PAL 1:1 (720x576) VBR Auto Pan&Scan, Auto Letterboxed
English Language Unit : Title Menu

VTS_01 Menu
Video: PAL 16:9 (720x576) VBR Auto Letterboxed
Audio: Not specified (Dolby AC3, 6 ch)
English Language Unit : Root Menu

VTS_02 Menu
Video: PAL 4:3 (720x576) VBR
English Language Unit : Root Menu

VTS_03 Menu
Video: PAL 4:3 (720x576) VBR
English Language Unit : Root Menu

VTS_04 Menu
Video: PAL 4:3 (720x576) VBR
English Language Unit : Root Menu

VTS_05 Menu
Video: PAL 4:3 (720x576) VBR
English Language Unit : Root Menu



Скриншоты:




Время раздачи: с 09:00 до 23:30 (до появления первых 3-5 скачавших)
 
Не забывайте говорить Спасибо. Не уходите с раздачи!   
Торрент: Зарегистрирован [07 дек 2016, 15:36] Для скачивания .torrent
необходима регистрация
Или скачать с помощью
MediaGet
Статус:
Проверен
 
.torrent скачан: 0 раз
Хэш: 9a56f89069394b8b1e1d3b2c53052770f4493386
Размер: 6.57 ГБ (7 056 082 944 байт)
Стать Автором раздачи
 
 
Раздал: 100 ГБ
Скачал: 0 байт
Ратио: Seed.
Сообщения: 87902
Зарегистрирован: 09 апр 2015, 22:31


  • Похожие торренты
    Ответы
    Просмотры
    Последнее сообщение

Вернуться в Детские отечественные фильмы

Кто сейчас на конференции

Сейчас эту тему просматривают: нет зарегистрированных пользователей и гости: 1

Ресурс не предоставляет электронные версии произведений, а занимается лишь коллекционированием и каталогизацией ссылок, присылаемых и публикуемых на форуме нашими читателями. Если вы являетесь правообладателем какого-либо представленного материала и не желаете чтобы ссылка на него находилась в нашем каталоге, свяжитесь с нами и мы незамедлительно удалим её. Файлы для обмена на трекере предоставлены пользователями сайта, и администрация не несёт ответственности за их содержание. Просьба не заливать файлы, защищенные авторскими правами, а также файлы нелегального содержания!