Легенды мирового кино / Легенды кино (3 часть) (58 выпускoв) (Андрей Истратов) [2015-2016, Документальный цикл, биографический, DVB]

 
 Статистика раздачи 
Размер: 55.96 ГБ   |  Зарегистрирован: 07 дек 2016, 14:55   |   .torrent скачан: 0 раз
Сидеров: 1  [ 0 байт/сек ]     Личеров: 0  [ 0 байт/сек ]  
  

Легенды мирового кино / Легенды кино (3 часть) (58 выпускoв) (Андрей Истратов) [2015-2016, Документальный цикл, биографический, DVB]

Сообщение aLaVodka » 07 дек 2016, 14:55

Легенды мирового кино / Легенды кино (3 часть)

Дата/Год выпуска: 2015-2016
Страна: Россия, ООО Телекомпания "Гамаюн"
Жанр: Документальный цикл, биографический
Продолжительность: 00:26:01
Перевод: Не требуется
Русские субтитры: нет
Рип: dean10,

Оригинальная аудиодорожка: русский
Режиссер: Андрей Истратов

Телеканал: Культура
Описание: Программа о судьбах людей, чьи имена навсегда вошли в историю мирового кинематографа.
"Каждая программа цикла "Легенды мирового кино" - это своеобразная "легенда о легенде", отражающая взгляд авторов передачи на жизнь и творчество знаменитых актеров и режиссеров. Благодаря увлекательным и динамичным историям, которые создают автор цикла Андрей Истратов и ведущий Константин Карасик, герои их программ - действительно "легенды мирового кино" - на время покидают свои "бронзовые постаменты" и превращаются в необыкновенных, но реальных, живых людей."


07.12.2016 _ добавил: Касаткина Людмила (2016)
перезаливаем

Доп. информация: Ведущий: Константин Карасик, с сентября 2016 Владислав Ветров (Легенды кино)
Астер Фред
Банионис Донатас
Белов Юрий
Блюме Рената
Борис Барнет
Будрайтис Юозас (2016)
Броневой Леонид
Вертов Дзига
Говард Хьюз
Грибов Алексей
Григорий Александров
Гриффит Дэвид
Гурченко Людмила
Даль Олег
де Фюнес Луи
Джек Николсон
Дуглас Фэрбенкс
Жирардо Анни (2016)
Касаткина Людмила (2016)
Китон Бастер
Козинцев Григорий
Крамаров Савелий (2016)
Кэгни Джеймс
Леонид Харитонов
Лидия Смирнова
Лолита Торрес
Лорен Софи
Лэнгдон Гарри
Маньяни Анна
Мастроянни Марчелло
Мельес Жорж
Миронов Андрей
Мозжухин Иван
Назимова Алла
Норман Мэйбл
Оболенский Леонид
Первиэнс Эдна
Полока Геннадий
Рид Дин
Ромм Михаил
Свенсон Глория
Сеннет Мак
Серафима Бирман
Стриженов Олег
Шпаликов Геннадий
Фальк Питер
Фёдорова Зоя
Филип Жерар
Фогель Владимир
Холодная Вера
Хуциев Марлен (2016)
Целиковская Людмила
Эйзенштейн Сергей
Экберг Анита
Юматов Георгий
Юрий Озеров
Ярвет Юри (2016)
Сэмпл: http://multi-up.com/1033321

качество: DVB
формат: MPEG-PS
Видео: MPEG 2, 720x576 (4:3), 25 fps, 5 323 Kbps
Аудио: MP2, 48 kHz, 2 ch, 256 Kbps
Код: Выделить всё
General
Complete name                            : Z:\Легенды мирового кино 3\Александров Григорий.mpg
Format                                   : MPEG-PS
File size                                : 1.03 GiB
Duration                                 : 25mn 58s
Overall bit rate mode                    : Variable
Overall bit rate                         : 5 692 Kbps

Video
ID                                       : 224 (0xE0)
Format                                   : MPEG Video
Format version                           : Version 2
Format profile                           : Main@Main
Format settings, BVOP                    : Yes
Format settings, Matrix                  : Custom
Format settings, GOP                     : M=3, N=15
Format settings, picture structure       : Frame
Duration                                 : 25mn 58s
Bit rate mode                            : Variable
Bit rate                                 : 5 323 Kbps
Maximum bit rate                         : 15.0 Mbps
Width                                    : 720 pixels
Height                                   : 576 pixels
Display aspect ratio                     : 4:3
Frame rate                               : 25.000 fps
Standard                                 : PAL
Color space                              : YUV
Chroma subsampling                       : 4:2:0
Bit depth                                : 8 bits
Scan type                                : Interlaced
Scan order                               : Top Field First
Compression mode                         : Lossy
Bits/(Pixel*Frame)                       : 0.513
Time code of first frame                 : 00:00:00:00
Time code source                         : Group of pictures header
GOP, Open/Closed                         : Open
GOP, Open/Closed of first frame          : Closed
Stream size                              : 989 MiB (94%)

Audio
ID                                       : 192 (0xC0)
Format                                   : MPEG Audio
Format version                           : Version 1
Format profile                           : Layer 2
Duration                                 : 25mn 58s
Bit rate mode                            : Constant
Bit rate                                 : 256 Kbps
Channel(s)                               : 2 channels
Sampling rate                            : 48.0 KHz
Compression mode                         : Lossy
Stream size                              : 47.5 MiB (4%)
Внимание! Раздача ведётся путём добавления новых серий; при каждом добавлении создётся новый торрент. Чтобы начать докачку новой серии, пользователям необходимо сделать следующее:
(1) остановить скачивание,
(2) удалить старый торрент у себя из клиента (старые серии удалять не надо),
(3) скачать новый торрент и запустить его у себя в клиенте вместо старого, при этом указать клиенту путь в старую папку куда и должно происходить скачивание новых серий.
Ваш клиент при этом должен произвести хеширование (проверку) старой папки (если не производит сам - помогите ему сделать это), и будет докачивать только те серии которых у вас
ещё нет. Старые серии при этом не удаляются, а продолжают раздаваться!
 
Не забывайте говорить Спасибо. Не уходите с раздачи!   
Торрент: Зарегистрирован [07 дек 2016, 14:55] Для скачивания .torrent
необходима регистрация
Или скачать с помощью
MediaGet
Статус:
Проверен
 
.torrent скачан: 0 раз
Хэш: 736b39c7a8593ea0afc909ed153e8c7412f9ae0c
Размер: 55.96 ГБ (60 086 329 344 байт)
Стать Автором раздачи
 
 
Раздал: 100 ГБ
Скачал: 0 байт
Ратио: Seed.
Сообщения: 188762
Зарегистрирован: 09 апр 2015, 20:00


  • Похожие торренты
    Ответы
    Просмотры
    Последнее сообщение

Вернуться в Документальные фильмы и телепередачи о кино и мультипликации (в том числе биографии)

Ресурс не предоставляет электронные версии произведений, а занимается лишь коллекционированием и каталогизацией ссылок, присылаемых и публикуемых на форуме нашими читателями. Если вы являетесь правообладателем какого-либо представленного материала и не желаете чтобы ссылка на него находилась в нашем каталоге, свяжитесь с нами и мы незамедлительно удалим её. Файлы для обмена на трекере предоставлены пользователями сайта, и администрация не несёт ответственности за их содержание. Просьба не заливать файлы, защищенные авторскими правами, а также файлы нелегального содержания!
cron