Discovery. Выжить после селфи / Still Alive (2015) HDTVRip [H.264/720p] [1-3 серии из ?] (Обновляемая)

 
 Статистика раздачи 
Размер: 3.84 ГБ   |  Зарегистрирован: 07 дек 2016, 13:30   |   .torrent скачан: 0 раз
Сидеров: 1  [ 0 байт/сек ]     Личеров: 0  [ 0 байт/сек ]  
  

Discovery. Выжить после селфи / Still Alive (2015) HDTVRip [H.264/720p] [1-3 серии из ?] (Обновляемая)

Сообщение explosiveone » 07 дек 2016, 13:30

Discovery. Выжить после селфи / Still Alive (2015) HDTVRip [H.264/720p] [1-3 серии из ?]

Телекомпания: США, Discovery Communications, LLC.
Жанр: Документальный, приключения

Описание:
Еще десять лет назад YouTube, GoPro, смартфоны и социальные сети были для нас в новинку, но с тех пор многое изменилось. Теперь мы можем взглянуть на мир через объектив камеры и вновь пережить самые памятные события в жизни. Новая программа «Выжить после селфи» расскажет об уникальных историях выживания, снятые людьми, которые побывали на грани жизни и смерти и сняли это на камеру. Под снежной лавиной, в подземной пещере, в открытом море и водах бурной реки, в лапах медведя или в пасти акулы – с каждым из участников программы в тот момент был маленький цифровой свидетель, который и запечатлел судьбоносные моменты. И теперь у нас есть возможность оказаться на месте каждого из героев программы и их глазами увидеть всё, что произошло.

Продолжительность: 3 x ~ 00:44:00
Качество видео: HDTVRip
Перевод: Профессиональный (одноголосый, закадровый)

Видео: MPEG-4 AVC, 1280x720, ~4000 Кбит/с
Аудио: MP2, 2 ch, 192 Кбит/

Релиз от:
Код: Выделить всё

           [b]Код:[/b] General
Unique ID                                : 92013835680311206395356043439358473706 (0x4539385B5271752921670AD32A9DF5EA)
Complete name                            Выжить после селфи\01 Выжить после селфи.mkv
Format                                   : Matroska
Format version                           : Version 2
File size                                : 1.28 GiB
Duration                                 : 43mn 57s
Overall bit rate mode                    : Variable
Overall bit rate                         : 4 171 Kbps
Writing application                      : Lavf54.63.104
Writing library                          : Lavf54.63.104 / Lavf54.63.104

Video
ID                                       : 1
Format                                   : AVC
Format/Info                              : Advanced Video Codec
Format profile                           :
Format settings, CABAC                   : Yes
Format settings, ReFrames                : 3 frames
Codec ID                                 : V_MPEG4/ISO/AVC
Duration                                 : 43mn 57s
Bit rate mode                            : Variable
Bit rate                                 : 3 896 Kbps
Maximum bit rate                         : 4 000 Kbps
Width                                    : 1 280 pixels
Height                                   : 720 pixels
Display aspect ratio                     : 16:9
Frame rate mode                          : Constant
Frame rate                               : 25.000 fps
Standard                                 : PAL
Color space                              : YUV
Chroma subsampling                       : 4:2:0
Bit depth                                : 8 bits
Scan type                                : Progressive
Bits/(Pixel*Frame)                       : 0.169
Stream size                              : 1.20 GiB (93%)
Default                                  : No
Forced                                   : No
Color range                              : Limited
Color primaries                          : BT.709
Transfer characteristics                 : BT.709
Matrix coefficients                      : BT.709

Audio
ID                                       : 2
Format                                   : MPEG Audio
Format version                           : Version 1
Format profile                           : Layer 2
Codec ID                                 : A_MPEG/L2
Codec ID/Hint                            : MP2
Duration                                 : 43mn 57s
Bit rate mode                            : Constant
Bit rate                                 : 192 Kbps
Channel(s)                               : 2 channels
Sampling rate                            : 48.0 KHz
Compression mode                         : Lossy
Stream size                              : 60.4 MiB (5%)
Language                                 : Russian
Default                                  : Yes
Forced                                   : No
Внимание! Раздача ведётся путём добавления новых серий; при каждом добавлении создfётся новый торрент. Чтобы начать докачку новой серии, пользователям необходимо сделать следующее: (1) остановить скачивание, (2) удалить старый торрент у себя из клиента (старые серии удалять не надо), (3) скачать новый торрент и запустить его у себя в клиенте вместо старого, при этом указать клиенту путь в старую папку куда и должно происходить скачивание новых серий.

Ваш клиент при этом должен произвести хеширование (проверку) старой папки (если не производит сам - помогите ему сделать это), и будет докачивать только те серии которых у вас ещё нет. Старые серии при этом не удаляются, а продолжают раздаваться!

Eсли вы уже удалили старые серии, то предотвратить повторную закачку старых серий можно, отжав галочку в соответсвующих местах при запуске нового торрента.

Скриншоты:


Время раздачи: 24/7



 
Не забывайте говорить Спасибо. Не уходите с раздачи!   
Торрент: Зарегистрирован [07 дек 2016, 13:30] Для скачивания .torrent
необходима регистрация
Или скачать с помощью
MediaGet
Статус:
Проверен
 
.torrent скачан: 0 раз
Хэш: 9b87cce76bef92dd207806727a53f9afc0dd5f5e
Размер: 3.84 ГБ (4 122 255 670 байт)
Стать Автором раздачи
 
 
Раздал: 100 ГБ
Скачал: 0 байт
Ратио: Seed.
Сообщения: 83956
Зарегистрирован: 09 апр 2015, 22:31


  • Похожие торренты
    Ответы
    Просмотры
    Последнее сообщение

Вернуться в Discovery

Кто сейчас на конференции

Сейчас эту тему просматривают: нет зарегистрированных пользователей и гости: 1

Ресурс не предоставляет электронные версии произведений, а занимается лишь коллекционированием и каталогизацией ссылок, присылаемых и публикуемых на форуме нашими читателями. Если вы являетесь правообладателем какого-либо представленного материала и не желаете чтобы ссылка на него находилась в нашем каталоге, свяжитесь с нами и мы незамедлительно удалим её. Файлы для обмена на трекере предоставлены пользователями сайта, и администрация не несёт ответственности за их содержание. Просьба не заливать файлы, защищенные авторскими правами, а также файлы нелегального содержания!