День, когда.../ The Day When… (2014) HDTVRip (1 серия из 4) (Обновляемая)

 
 Статистика раздачи 
Размер: 741.24 МБ   |  Зарегистрирован: 07 дек 2016, 06:01   |   .torrent скачан: 0 раз
Сидеров: 1  [ 0 байт/сек ]     Личеров: 0  [ 0 байт/сек ]  
  

День, когда.../ The Day When… (2014) HDTVRip (1 серия из 4) (Обновляемая)

Сообщение explosiveone » 07 дек 2016, 06:01

День, когда.../ The Day When… (2014) HDTVRip (1 серия из 4) (Обновляемая)

Телекомпания: Франция, Et La Suite Productions, France Televisions and Planete+
Жанр: Документальный, война, история, постановочный

Режиссер: Лоран Джоффин, Лоран Портес

Описание:
Гитлер, Черчилль, де Голль и Рузвельт. Это те люди, которые сформировали историю ХХ века. Во времена кризиса или войны, любое личное решение национального лидера может изменить правила игры. Используя архивные материалы и исторические реконструкции, мы увидим тот день, когда эти известные политики приняли решения, которые повлияли на ход истории во Второй мировой войне.

Релиз от: alf62

Продолжительность: 1 x ~ 00:51:47
Качество видео: HDTVRip

Перевод: Дублированный

Видео: Xvid, 720x400, ~1800 Kbps
Аудио: AC3, 2 ch, 192 Kbps, CBR
1. Когда Черчилль выбрал войну / Churchill chose war
28 мая 1940 года, после разгрома Вермахтом сил союзников во Франции, Черчилль убеждает единомышленников присоединиться к борьбе с Гитлером, изменив ход Второй мировой для Великобритании.
Код: Выделить всё
ень.когда.(1.серия).Когда.Черчилль.выбрал.войну.2014.XviD.HDTVRip.alf62.avi
Формат                                   : AVI
Формат/Информация                        : Audio Video Interleave
Размер файла                             : 741 Мбайт
Продолжительность                        : 51 м.
Общий поток                              : 2002 Кбит/сек
Программа кодирования                    : VirtualDubMod 1.5.10.3 | [url=http://www.virtualdub-fr.org]www.virtualdub-fr.org[/url] || (build 2550/release)
Библиотека кодирования                   : VirtualDubMod build 2550/release

Видео
Идентификатор                            : 0
Формат                                   : MPEG-4 Visual
Профиль формата                          : Advanced Simple@L5
Параметр BVOP формата                    : 2
Параметр QPel формата                    : Нет
Параметр GMC формата                     : Без точки перехода
Параметр матрицы формата                 : Default (MPEG)
Идентификатор кодека                     : XVID
Идентификатор кодека/Подсказка           : XviD
Продолжительность                        : 51 м.
Битрейт                                  : 1800 Кбит/сек
Ширина                                   : 720 пикселей
Высота                                   : 400 пикселей
Соотношение сторон                       : 16:9
Частота кадров                           : 25,000 кадров/сек
Цветовое пространство                    : YUV
Субдискретизация насыщенности            : 4:2:0
Битовая глубина                          : 8 бит
Тип развёртки                            : Прогрессивная
Метод сжатия                             : С потерями
Бит/(Пиксели*Кадры)                      : 0.250
Размер потока                            : 667 Мбайт (90%)
Библиотека кодирования                   : XviD 73

Аудио
Идентификатор                            : 1
Формат                                   : AC-3
Формат/Информация                        : Audio Coding 3
Расширение режима                        : CM (complete main)
Параметр Endianness формата              : Big
Идентификатор кодека                     : 2000
Продолжительность                        : 51 м.
Вид битрейта                             : Постоянный
Битрейт                                  : 192 Кбит/сек
Каналы                                   : 2 канала
Расположение каналов                     : Front: L R
Частота                                  : 48,0 КГц
Битовая глубина                          : 16 бит
Метод сжатия                             : С потерями
Размер потока                            : 71,1 Мбайт (10%)
Выравнивание                             : Разделение по промежуткам
Продолжительность промежутка             : 40  мс. (1,00 видеокадр)
Время предзагрузки промежутка            : 500  мс.

Скриншоты:





Время раздачи: до появления первых 3-5 скачавших
 
Не забывайте говорить Спасибо. Не уходите с раздачи!   
Торрент: Зарегистрирован [07 дек 2016, 06:01] Для скачивания .torrent
необходима регистрация
Или скачать с помощью
MediaGet
Статус:
Проверен
 
.torrent скачан: 0 раз
Хэш: c53e46c7ce9aa94de3517c3bd8fd23491d072cf5
Размер: 741.24 МБ (777 242 624 байт)
Стать Автором раздачи
 
 
Раздал: 100 ГБ
Скачал: 0 байт
Ратио: Seed.
Сообщения: 94142
Зарегистрирован: 09 апр 2015, 22:31


  • Похожие торренты
    Ответы
    Просмотры
    Последнее сообщение

Вернуться в Вторая мировая война

Ресурс не предоставляет электронные версии произведений, а занимается лишь коллекционированием и каталогизацией ссылок, присылаемых и публикуемых на форуме нашими читателями. Если вы являетесь правообладателем какого-либо представленного материала и не желаете чтобы ссылка на него находилась в нашем каталоге, свяжитесь с нами и мы незамедлительно удалим её. Файлы для обмена на трекере предоставлены пользователями сайта, и администрация не несёт ответственности за их содержание. Просьба не заливать файлы, защищенные авторскими правами, а также файлы нелегального содержания!
cron