День, когда.../ The Day When… (2014) HDTVRip [H.264/720p-LQ] (1 серия из 4) (Обновляемая)

 
 Статистика раздачи 
Размер: 1.34 ГБ   |  Зарегистрирован: 07 дек 2016, 06:00   |   .torrent скачан: 33 раз
Сидеров: 1  [ 0 байт/сек ]     Личеров: 0  [ 0 байт/сек ]  
  

День, когда.../ The Day When… (2014) HDTVRip [H.264/720p-LQ] (1 серия из 4) (Обновляемая)

Сообщение explosiveone » 07 дек 2016, 06:00

День, когда... / The Day When… (2014) HDTVRip [H.264/720p-LQ] (1 серия из 4) (Обновляемая)

Телекомпания: Франция, Et La Suite Productions, France Televisions and Planete+
Жанр: Документальный, война, история, постановочный

Режиссер: Лоран Джоффин, Лоран Портес

Описание:
Гитлер, Черчилль, де Голль и Рузвельт. Это те люди, которые сформировали историю ХХ века. Во времена кризиса или войны, любое личное решение национального лидера может изменить правила игры. Используя архивные материалы и исторические реконструкции, мы увидим тот день, когда эти известные политики приняли решения, которые повлияли на ход истории во Второй мировой войне.

Релиз от: alf62

Продолжительность: 1 x ~ 00:51:47
Качество видео: HDTVRip (720p)
Перевод: Дублированный

Видео: AVC/H.264, 1280x720, ~3500 Kbps
Аудио: AC3, 2 ch, 192 Kbps, CBR
1. Когда Черчилль выбрал войну / Churchill chose war
28 мая 1940 года, после разгрома Вермахтом сил союзников во Франции, Черчилль убеждает единомышленников присоединиться к борьбе с Гитлером, изменив ход Второй мировой для Великобритании.
Код: Выделить всё
День.когда.(1.серия).Когда.Черчилль.выбрал.войну.2014.HDTV.720p.x264.alf62.mkv
Формат                                   : Matroska
Версия формата                           : Version 2
Размер файла                             : 1,34 Гбайт
Продолжительность                        : 51 м.
Общий поток                              : 3693 Кбит/сек
Дата кодирования                         : UTC 2016-12-06 02:45:09
Программа кодирования                    : mkvmerge v7.8.0 ('River Man') 32bit built on Apr  3 2015 12:11:22
Библиотека кодирования                   : libebml v1.3.1 + libmatroska v1.4.2

Видео
Идентификатор                            : 1
Формат                                   : AVC
Формат/Информация                        : Advanced Video Codec
Профиль формата                          :
Параметр CABAC формата                   : Да
Параметр ReFrames формата                : 9 кадров
Идентификатор кодека                     : V_MPEG4/ISO/AVC
Продолжительность                        : 51 м.
Битрейт                                  : 3500 Кбит/сек
Ширина                                   : 1280 пикселей
Высота                                   : 720 пикселей
Соотношение сторон                       : 16:9
Режим частоты кадров                     : Постоянный
Частота кадров                           : 25,000 кадров/сек
Цветовое пространство                    : YUV
Субдискретизация насыщенности            : 4:2:0
Битовая глубина                          : 8 бит
Тип развёртки                            : Прогрессивная
Бит/(Пиксели*Кадры)                      : 0.152
Размер потока                            : 1,24 Гбайт (93%)
Библиотека кодирования                   : x264 core 146 r2538 121396c
Настройки программы                      : cabac=1 / ref=9 / deblock=1:-2:-2 / analyse=0x3:0x113 / me=umh / subme=10 / psy=1 / psy_rd=1.00:0.00 / mixed_ref=1 / me_range=32 / chroma_me=1 / trellis=2 / 8x8dct=1 / cqm=0 / deadzone=21,11 / fast_pskip=0 / chroma_qp_offset=-2 / threads=6 / lookahead_threads=1 / sliced_threads=0 / nr=0 / decimate=0 / interlaced=0 / bluray_compat=0 / constrained_intra=0 / bframes=9 / b_pyramid=2 / b_adapt=2 / b_bias=0 / direct=3 / weightb=1 / open_gop=0 / weightp=2 / keyint=250 / keyint_min=25 / scenecut=40 / intra_refresh=0 / rc_lookahead=40 / rc=2pass / mbtree=0 / bitrate=3500 / ratetol=1.0 / qcomp=0.60 / qpmin=10 / qpmax=51 / qpstep=4 / cplxblur=20.0 / qblur=0.5 / vbv_maxrate=14000 / vbv_bufsize=14000 / nal_hrd=none / filler=0 / ip_ratio=1.40 / pb_ratio=1.30 / aq=1:0.80
Default                                  : Да
Forced                                   : Нет

Аудио
Идентификатор                            : 2
Формат                                   : AC-3
Формат/Информация                        : Audio Coding 3
Расширение режима                        : CM (complete main)
Параметр Endianness формата              : Big
Идентификатор кодека                     : A_AC3
Продолжительность                        : 51 м.
Вид битрейта                             : Постоянный
Битрейт                                  : 192 Кбит/сек
Каналы                                   : 2 канала
Расположение каналов                     : Front: L R
Частота                                  : 48,0 КГц
Битовая глубина                          : 16 бит
Метод сжатия                             : С потерями
Размер потока                            : 71,1 Мбайт (5%)
Default                                  : Да
Forced                                   : Нет

Скриншоты:





Время раздачи: до появления первых 3-5 скачавших
 
Не забывайте говорить Спасибо. Не уходите с раздачи!   
Торрент: Зарегистрирован [07 дек 2016, 06:00] Для скачивания .torrent
необходима регистрация
Или скачать с помощью
MediaGet
Статус:
Проверен
 
.torrent скачан: 33 раз
Хэш: 63704972bb6b25d78992e366ed6d38113b1e3505
Размер: 1.34 ГБ (1 433 956 903 байт)
Стать Автором раздачи
 
 
Раздал: 100 ГБ
Скачал: 0 байт
Ратио: Seed.
Сообщения: 85674
Зарегистрирован: 09 апр 2015, 22:31


  • Похожие торренты
    Ответы
    Просмотры
    Последнее сообщение

Вернуться в Вторая мировая война

Кто сейчас на конференции

Сейчас эту тему просматривают: нет зарегистрированных пользователей и гости: 1

Ресурс не предоставляет электронные версии произведений, а занимается лишь коллекционированием и каталогизацией ссылок, присылаемых и публикуемых на форуме нашими читателями. Если вы являетесь правообладателем какого-либо представленного материала и не желаете чтобы ссылка на него находилась в нашем каталоге, свяжитесь с нами и мы незамедлительно удалим её. Файлы для обмена на трекере предоставлены пользователями сайта, и администрация не несёт ответственности за их содержание. Просьба не заливать файлы, защищенные авторскими правами, а также файлы нелегального содержания!