NG: Continent 7 Antarctica / Седьмой континент Антарктика (2016) HDTVRip [H.264/720p] (сезон 1, серии 1-3 из 6) (обновляемая)

 
 Статистика раздачи 
Размер: 5.05 ГБ   |  Зарегистрирован: 06 дек 2016, 22:46   |   .torrent скачан: 0 раз
Сидеров: 1  [ 0 байт/сек ]     Личеров: 0  [ 0 байт/сек ]  
  

NG: Continent 7 Antarctica / Седьмой континент Антарктика (2016) HDTVRip [H.264/720p] (сезон 1, серии 1-3 из 6) (обновляемая)

Сообщение explosiveone » 06 дек 2016, 22:46

NG: Continent 7 Antarctica / Седьмой континент Антарктика (2016) HDTVRip [H.264/720p] (сезон 1, серии 1-3 из 6)

Телекомпания: США, National Geographic Studios
Жанр: Документальный, научно-популярный, ислледования

Описание:
Седьмой континент: Антарктика покажет вам самые экстремальные условия на Земле, продемонтрирует, насколько много усилий нужно приложить, чтобы поддерживать жизнь человека в этих местах, и расскажет о крупнейших открытиях науки. Вы поучаствуете в миссиях на льду, подо льдом и на некоторых ледяных вершинах вместе с учёными и специалистами по выживанию, которые объединяют усилия и борются с жестокими силами природы, чтобы изменить этот мир.



Продолжительность: 3 x ~ 00:46:28
Качество видео: HDTVRip 720P
Перевод: Профессиональный (одноголосый), переведено и озвучено на студии Велес, текст читает - Дмитрий Стрелков

Режиссер: Тод Херманн

Видео: AVC/H.264, 1280x720, ~5000 kbps
Аудио: AC3, 2 ch, 192 kbps

релиз skorpionN
Код: Выделить всё
Format : Matroska
Format version : Version 4 / Version 2
File size : 1.68 GiB
Duration : 46 min 28 s
Overall bit rate mode : Variable
Overall bit rate : 5 187 kb/s
Encoded date : UTC 2016-11-22 11:48:28
Writing application : mkvmerge v7.3.0 ('Nouages') 64bit built on Oct 22 2014 18:53:34
Writing library : libebml v1.3.0 + libmatroska v1.4.1

Video
ID : 1
Format : AVC
Format/Info : Advanced Video Codec
Format profile :
Format settings, CABAC : Yes
Format settings, ReFrames : 3 frames
Codec ID : V_MPEG4/ISO/AVC
Duration : 46 min 28 s
Bit rate mode : Variable
Bit rate : 5 000 kb/s
Maximum bit rate : 8 000 kb/s
Width : 1 280 pixels
Height : 720 pixels
Display aspect ratio : 16:9
Frame rate mode : Constant
Frame rate : 25.000 FPS
Standard : NTSC
Color space : YUV
Chroma subsampling : 4:2:0
Bit depth : 8 bits
Scan type : Progressive
Bits/(Pixel*Frame) : 0.217
Stream size : 1.62 GiB (96%)
Writing library : x264 core 114
Encoding settings : cabac=1 / ref=3 / deblock=1:0:0 / analyse=0x3:0x113 / me=hex / subme=7 / psy=1 / psy_rd=1.00:0.00 / mixed_ref=1 / me_range=16 / chroma_me=1 / trellis=1 / 8x8dct=1 / cqm=2 / deadzone=21,11 / fast_pskip=1 / chroma_qp_offset=-4 / threads=6 / sliced_threads=0 / slices=1 / nr=0 / decimate=1 / interlaced=0 / constrained_intra=0 / bframes=3 / b_pyramid=0 / b_adapt=1 / b_bias=0 / direct=1 / weightb=1 / open_gop=0 / weightp=2 / keyint=250 / keyint_min=25 / scenecut=40 / intra_refresh=0 / rc_lookahead=40 / rc=2pass / mbtree=1 / bitrate=5000 / ratetol=1.0 / qcomp=0.60 / qpmin=5 / qpmax=69 / qpstep=4 / cplxblur=20.0 / qblur=0.5 / vbv_maxrate=8000 / vbv_bufsize=7995 / nal_hrd=vbr / ip_ratio=1.40 / aq=1:1.00
Default : Yes
Forced : No
Color range : Limited
Color primaries : BT.709
Transfer characteristics : BT.709
Matrix coefficients : BT.709

Audio
ID : 2
Format : AC-3
Format/Info : Audio Coding 3
Mode extension : CM (complete main)
Format settings, Endianness : Big
Codec ID : A_AC3
Duration : 46 min 28 s
Bit rate mode : Constant
Bit rate : 192 kb/s
Channel(s) : 2 channels
Channel positions : Front: L R
Sampling rate : 48.0 kHz
Frame rate : 31.250 FPS (1536 spf)
Compression mode : Lossy
Stream size : 63.8 MiB (4%)
Default : Yes
Forced : No
01. Штормы Антарктики / Storming Antarctica
Шесть команд учёных прибыли в Антарктику, чтобы выяснить, как изменение климата влияет на жизнь на планете.

02. Не предназначена для людей / Not Fit For Human Life
Из-за шторма на базе Скотта всем учёным пришлось свернуть работу и забаррикадироваться, ожидая, когда шторм утихнет.

03. Работа на Антарктике
Помимо проблем с посадкой на одну из точек, оборудование команды "Эребус" отказало из-за сильного холода.

04. Последний шанс
Чтобы выжить на Антарктике, организмы должны приспосабливаться к самому суровому климату на Земле.

05. Наука выживания
На Скотт-Бейс работа кипит полным ходом: нужно разобраться с логистикой, отправить команды на задания и приготовиться к доставке в порт годового запаса.
06. Антарктика 6
Зима приближается, и полевые команды заканчивают свою работу. Это последний шанс собрать нужную информацию для изучения ледяного континента.
Раздача ведётся путём добавления новых серий; при каждом добавлении создаётся новый торрент. Чтобы начать докачку новой серии, пользователям необходимо сделать следующее:
- Остановить скачивание.
- Удалить старый торрент у себя из клиента (старые серии удалять не надо).
- Скачать новый торрент и запустить его у себя в клиенте вместо старого, при этом указать клиенту путь в старую папку куда и должно происходить скачивание новых серий.

Скриншоты:


Добавлено

03. Работа на Антарктиде / Antarctic Aftermath Life

Время раздачи: 24/7
 
Не забывайте говорить Спасибо. Не уходите с раздачи!   
Торрент: Зарегистрирован [06 дек 2016, 22:46] Для скачивания .torrent
необходима регистрация
Или скачать с помощью
MediaGet
Статус:
Проверен
 
.torrent скачан: 0 раз
Хэш: 1f2b89cdf71f02de50d7bca3ee020e96d2cf46f6
Размер: 5.05 ГБ (5 421 938 985 байт)
Стать Автором раздачи
 
 
Раздал: 100 ГБ
Скачал: 0 байт
Ратио: Seed.
Сообщения: 83756
Зарегистрирован: 09 апр 2015, 22:31


  • Похожие торренты
    Ответы
    Просмотры
    Последнее сообщение

Вернуться в National Geographic

Кто сейчас на конференции

Сейчас эту тему просматривают: нет зарегистрированных пользователей и гости: 1

Ресурс не предоставляет электронные версии произведений, а занимается лишь коллекционированием и каталогизацией ссылок, присылаемых и публикуемых на форуме нашими читателями. Если вы являетесь правообладателем какого-либо представленного материала и не желаете чтобы ссылка на него находилась в нашем каталоге, свяжитесь с нами и мы незамедлительно удалим её. Файлы для обмена на трекере предоставлены пользователями сайта, и администрация не несёт ответственности за их содержание. Просьба не заливать файлы, защищенные авторскими правами, а также файлы нелегального содержания!