Взгляд изнутри / Inside (9 выпусков) (Анна Родзински / Anna Rodzinski) [2009-2011, Документальный цикл, HDTV 1080i, RU, EN]

 
 Статистика раздачи 
Размер: 23.96 ГБ   |  Зарегистрирован: 06 дек 2016, 21:09   |   .torrent скачан: 0 раз
Сидеров: 3  [ 0 байт/сек ]     Личеров: 1  [ 0 байт/сек ]  
  

Взгляд изнутри / Inside (9 выпусков) (Анна Родзински / Anna Rodzinski) [2009-2011, Документальный цикл, HDTV 1080i, RU, EN]

Сообщение aLaVodka » 06 дек 2016, 21:09

Взгляд изнутри / Inside

Год выпуска:2009-2011
Страна: США
Студия: NGC Network Int
Жанр: Документальный цикл
Продолжительность: 00:44:59
Перевод: Профессиональный (двухголосый закадровый)
Русские субтитры: нет
Текст читал: Радик Мухаметзянов

Режиссер: Анна Родзински / Anna Rodzinski

Описание:

Документальный цикл на разные темы

06.12.2016 _ добавил: Крупнейшая тюрьма Азии,
перезаливаем
Бойня в день Святого Валентина
Гибель заложников
Король карманников
Крупнейшая тюрьма Азии
Мусульманское братство
Нарковойна
Самая страшная тюрьма России
Талибанистан
Токийская мафия
Сэмпл: http://multi-up.com/1069774

Тип релиза: HDTV 1080i
Контейнер: TS

Видео: AVC, 1920x1080, (16:9), 25 fps, 6.0 Mbps, 0.12 bit/pixel
Аудио#1: Russian, AC3, 48 kHz, 6 ch; 448 kbps
Аудио#2: English, AC3, 48 kHz, 6 ch; 448 kbps
Код: Выделить всё
General
ID                                       : 1 (0x1)
Complete name                            : C:\Взгляд изнутри_HDTV 1080i_RU_EN\Самая страшная тюрьма России.ts
Format                                   : MPEG-TS
File size                                : 2.28 GiB
Duration                                 : 44mn 59s
Overall bit rate mode                    : Variable
Overall bit rate                         : 7 252 Kbps

Video
ID                                       : 302 (0x12E)
Menu ID                                  : 26002 (0x6592)
Format                                   : AVC
Format/Info                              : Advanced Video Codec
Format profile                           : [email protected]
Format settings, CABAC                   : Yes
Format settings, ReFrames                : 4 frames
Codec ID                                 : 27
Duration                                 : 44mn 59s
Bit rate                                 : 5 988 Kbps
Width                                    : 1 920 pixels
Height                                   : 1 080 pixels
Display aspect ratio                     : 16:9
Frame rate                               : 25.000 fps
Standard                                 : Component
Color space                              : YUV
Chroma subsampling                       : 4:2:0
Bit depth                                : 8 bits
Scan type                                : Interlaced
Scan order                               : Top Field First
Bits/(Pixel*Frame)                       : 0.116
Stream size                              : 1.88 GiB (83%)
Color range                              : Limited
Color primaries                          : BT.709
Transfer characteristics                 : BT.709
Matrix coefficients                      : BT.709

Audio #1
ID                                       : 402 (0x192)
Menu ID                                  : 26002 (0x6592)
Format                                   : AC-3
Format/Info                              : Audio Coding 3
Mode extension                           : CM (complete main)
Format settings, Endianness              : Big
Codec ID                                 : 6
Duration                                 : 44mn 59s
Bit rate mode                            : Constant
Bit rate                                 : 448 Kbps
Channel(s)                               : 6 channels
Channel positions                        : Front: L C R, Side: L R, LFE
Sampling rate                            : 48.0 KHz
Compression mode                         : Lossy
Delay relative to video                  : -80ms
Stream size                              : 144 MiB (6%)
Language                                 : Russian

Audio #2
ID                                       : 403 (0x193)
Menu ID                                  : 26002 (0x6592)
Format                                   : AC-3
Format/Info                              : Audio Coding 3
Mode extension                           : CM (complete main)
Format settings, Endianness              : Big
Codec ID                                 : 6
Duration                                 : 44mn 59s
Bit rate mode                            : Constant
Bit rate                                 : 448 Kbps
Channel(s)                               : 6 channels
Channel positions                        : Front: L C R, Side: L R, LFE
Sampling rate                            : 48.0 KHz
Compression mode                         : Lossy
Delay relative to video                  : -80ms
Stream size                              : 144 MiB (6%)
Language                                 : English
 
Не забывайте говорить Спасибо. Не уходите с раздачи!   
Торрент: Зарегистрирован [06 дек 2016, 21:09] Для скачивания .torrent
необходима регистрация
Или скачать с помощью
MediaGet
Статус:
Проверен
 
.torrent скачан: 0 раз
Хэш: c2908b4b248c26dc0c19aed2a3e670ac9ec0aea2
Размер: 23.96 ГБ (25 722 679 444 байт)
Стать Автором раздачи
 
 
Раздал: 100 ГБ
Скачал: 0 байт
Ратио: Seed.
Сообщения: 182341
Зарегистрирован: 09 апр 2015, 20:00


  • Похожие торренты
    Ответы
    Просмотры
    Последнее сообщение

Вернуться в BBC, Discovery, National Geographic (HD Video)

Кто сейчас на конференции

Сейчас эту тему просматривают: нет зарегистрированных пользователей и гости: 1

Ресурс не предоставляет электронные версии произведений, а занимается лишь коллекционированием и каталогизацией ссылок, присылаемых и публикуемых на форуме нашими читателями. Если вы являетесь правообладателем какого-либо представленного материала и не желаете чтобы ссылка на него находилась в нашем каталоге, свяжитесь с нами и мы незамедлительно удалим её. Файлы для обмена на трекере предоставлены пользователями сайта, и администрация не несёт ответственности за их содержание. Просьба не заливать файлы, защищенные авторскими правами, а также файлы нелегального содержания!