Люфтваффе во Второй мировой войне (Коллекция Архива) (3 серии из 8) / The definitive series on the in Luftwaffe WW2 (the Archive Collection) [2006, Документальный, авиация, война, история, DVDRip]

 
 Статистика раздачи 
Размер: 2.6 ГБ   |  Зарегистрирован: 05 дек 2016, 20:34   |   .torrent скачан: 97 раз
Сидеров: 2  [ 0 байт/сек ]     Личеров: 0  [ 0 байт/сек ]  
  

Люфтваффе во Второй мировой войне (Коллекция Архива) (3 серии из 8) / The definitive series on the in Luftwaffe WW2 (the Archive Collection) [2006, Документальный, авиация, война, история, DVDRip]

Сообщение aLaVodka » 05 дек 2016, 20:34

Люфтваффе во Второй мировой войне (Коллекция Архива) (3 серии из 8) / The definitive series on the in Luftwaffe WW2 (the Archive Collection)

Дата/Год выпуска: 2006
Страна: Великобритания, Arts Magic
Жанр: Документальный, авиация, война, история
Продолжительность: 3 х ~ 00:54:15
Перевод 1: Студийный (одноголосый закадровый) (серии 1-2)
Перевод 2: Одноголосый закадровый (den904) (5 серия)
Русские субтитры: русские (5 серия)
Оригинальная аудиодорожка: английский

Описание: Документальный сериал из архивных кинохроник об истории немецких военно-воздушных сил (Люфтваффе) во время Второй мировой войны, от блицкрига в Польше, до последней отчаянной попытки защитить небо над Германией от массированных налетов авиации Союзников.
В фильме довольно подробно рассматривается применение дневных и ночных истребителей, а также бомбардировочной и транспортной авиации на различных театрах военных действий.

Доп. информация: Авторство релиза - alf62

Большое СПАСИБО:
- Alexin29 ®, за предоставленные русские звуковые дорожки (1-2 серия);
- karlivanovich, за перевод и субтитры;
- den904, за озвучивание субтитров;
- Нордер, за синхронизацию звуковых дорожек;
- alinto, за предоставленный DVD:

Пятая серия фильма переведена и озвучена благодаря финансированию alf62, Белка123 и aleksand1r



качество: DVDRip
формат: AVI
Видео: 704x528 (1.33:1), 25 fps, XviD build 73 ~1906 kbps avg, 0.21 bit/pixel
Аудио 1: Русский 48 kHz, AC3 Dolby Digital, 2/0 (L,R) ch, ~192.00 kbps avg
Аудио 2: Английский 48 kHz, AC3 Dolby Digital, 2/0 (L,R) ch, ~192.00 kbps avg
1. Дневные истребители 1939-1942 / German Fighter Aircraft of WW2 1939-1942
Люфтваффе вступили во Вторую мировую войну в сентябре 1939 года, используя в качестве основного дневного истребителя Messerschmitt Bf.109, один из классических образцов истребителей всех времен. Когда началась война, он уже имел высокую репутацию, полученную в результате успешного применения в гражданской войне в Испании. В 1941 году, над Ла-Маншем, дебютировал Фокке-Вульф FW-190. Он быстро стал истребителем «длинной руки» Люфтваффе и должен был играть главную роль в расширении конфликта с 1941 года. Фильм охватывает операции на Bf.109 на всех фронтах до 1942 года и ранние миссии FW-190 над Францией и Ла-Маншем.

2. Дневные истребители 1942-1945 / German Fighter Aircraft of WW2 1942-1945
Фильм о тщетной попытке люфтваффе защитить Германию от дневных налетов бомбардировщиков США, которые стали серьезной угрозой для третьего Рейха. Между 1942 и 1945 годами, Германия полагались на две основные модели дневных истребителей: Messerschmitt Bf.109 и Focke-Wulf Fw 190, которые должны были разогнать формации бомбардировщиков союзников. Хроника различных усилий в этой оборонной кампании в
архивных кадрах военного времени.

3. German Jets V1 & V2 Flying Bombs
4. German Night Flyers of WW2

5. Немецкие пикирующие бомбардировщики и штурмовики второй мировой войны / Dive Bombers and Combat Aircraft of WW2
История создания и боевого применения немецкой штурмовой авиации. Самого термина «штурмовая авиация» в Люфтваффе не существовало, как и самолетов, специально предназначенных для штурмовки подобно советскому самолету Ил-2 (не считая созданного в 42-м году самолета Hs 129). Этот термин применим в качестве собирательного для немецких авиационных частей и подразделений, предназначенных для непосредственной поддержки сухопутных войск на поле боя и вблизи переднего края.
Основным самолетом немецкой штурмовой авиации на протяжении значительной части войны был пикирующий бомбардировщик Ju 87 различных модификаций, который с мая 1943 начал постепенно заменяться одномоторным одноместным самолетом FW 190 в его бомбардировочной модификации и с января 1943 одноместным двухмоторным самолетом Hs 129.
Юнкерс Ju-87 «Штука» - пикирующий бомбардировщик (нем. Stuka = Sturzkampfflugzeug (ШТУрцКАмпфлюгцойг)

Штурцгешвадер - эскадра пикирующих бомбардировщиков (нем. SturzkampfGeshwader (StG). Эскадры включали в себя три-четыре Группы. Кроме того, в эскадре была штабная эскадрилья, а также могли быть другие отдельные эскадрильи, например специализированные. Эскадра являлась наиболее крупным формированием штурмовой авиации (имела по штату около 130 самолетов). Соответствовала примерно нашему авиаполку

Группа - три эскадрильи, плюс отдельное штабное звено (Stabsschwarm) составляли группу (нем. Gruppe), штатная численность группы составляла 40 самолетов.

Шлахтгешвадер - эскадра непосредственной поддержки войск (нем. Schlachtgechwader (SG)

Штаффель – основная тактическая единица в составе Группы (эскадрилья) (нем. Staffel). Стандартный штаффель Люфтваффе состоял из 12 самолетов, но в зависимости от театра боевых действий или напряженной обстановки в секторе действия штаффеля, в его составе могло быть до 30 самолетов. Исходя из этого в «стандартном» виде группа, состояла из 40 самолетов, но в зависимости от обстановки на ТВД в составе одной группы могло быть и до 70 машин в составе.
6. Bombers and Bombing Raids 1939-1942
7. Bombers and Bombing Raids 1942-1945
8 German Support Aircraft and Gliders of WW2
Код: Выделить всё
Люфтваффе.(1.серия.из.8).Дневные.истребители.1939-1942.2006.XviD.DVDRip.alf.62.avi
Формат                                   : AVI
Формат/Информация                        : Audio Video Interleave
Размер файла                             : 903 Мбайт
Продолжительность                        : 54 м.
Общий поток                              : 2306 Кбит/сек
Программа кодирования                    : VirtualDubModRus 1.5.10.2 (build 2542/release)
Библиотека кодирования                   : VirtualDubMod build 2542/release

Видео
Идентификатор                            : 0
Формат                                   : MPEG-4 Visual
Профиль формата                          : Advanced [email protected]
Параметр BVOP формата                    : 1
Параметр QPel формата                    : Нет
Параметр GMC формата                     : Без точки перехода
Параметр матрицы формата                 : Default (MPEG)
Идентификатор кодека                     : XVID
Идентификатор кодека/Подсказка           : XviD
Продолжительность                        : 54 м.
Битрейт                                  : 1907 Кбит/сек
Ширина                                   : 704 пикселя
Высота                                   : 528 пикселей
Соотношение сторон                       : 4:3
Частота кадров                           : 25,000 кадров/сек
Цветовое пространство                    : YUV
Субдискретизация насыщенности            : 4:2:0
Битовая глубина                          : 8 бит
Тип развёртки                            : Прогрессивная
Метод сжатия                             : С потерями
Бит/(Пиксели*Кадры)                      : 0.205
Размер потока                            : 747 Мбайт (83%)
Библиотека кодирования                   : XviD 73

Аудио #1
Идентификатор                            : 1
Формат                                   : AC-3
Формат/Информация                        : Audio Coding 3
Расширение режима                        : CM (complete main)
Параметр Endianness формата              : Big
Идентификатор кодека                     : 2000
Продолжительность                        : 54 м.
Вид битрейта                             : Постоянный
Битрейт                                  : 192 Кбит/сек
Каналы                                   : 2 канала
Расположение каналов                     : Front: L R
Частота                                  : 48,0 КГц
Битовая глубина                          : 16 бит
Метод сжатия                             : С потерями
Размер потока                            : 75,2 Мбайт (8%)
Выравнивание                             : Разделение по промежуткам
Продолжительность промежутка             : 40  мс. (1,00 видеокадр)
Время предзагрузки промежутка            : 500  мс.

Аудио #2
Идентификатор                            : 2
Формат                                   : AC-3
Формат/Информация                        : Audio Coding 3
Расширение режима                        : CM (complete main)
Параметр Endianness формата              : Big
Идентификатор кодека                     : 2000
Продолжительность                        : 54 м.
Вид битрейта                             : Постоянный
Битрейт                                  : 192 Кбит/сек
Каналы                                   : 2 канала
Расположение каналов                     : Front: L R
Частота                                  : 48,0 КГц
Битовая глубина                          : 16 бит
Метод сжатия                             : С потерями
Размер потока                            : 75,2 Мбайт (8%)
Выравнивание                             : Разделение по промежуткам
Продолжительность промежутка             : 40  мс. (1,00 видеокадр)
Время предзагрузки промежутка            : 500  мс.








 
Не забывайте говорить Спасибо. Не уходите с раздачи!   
Торрент: Зарегистрирован [05 дек 2016, 20:34] Для скачивания .torrent
необходима регистрация
Или скачать с помощью
MediaGet
Статус:
Проверен
 
.torrent скачан: 97 раз
Хэш: 44143123e9c34967402433d973cd82aff7e9e08c
Размер: 2.6 ГБ (2 790 615 848 байт)
Стать Автором раздачи
 
 
Раздал: 100 ГБ
Скачал: 0 байт
Ратио: Seed.
Сообщения: 182341
Зарегистрирован: 09 апр 2015, 20:00


  • Похожие торренты
    Ответы
    Просмотры
    Последнее сообщение

Вернуться в Авиация (видео)

Кто сейчас на конференции

Сейчас эту тему просматривают: нет зарегистрированных пользователей и гости: 1

Ресурс не предоставляет электронные версии произведений, а занимается лишь коллекционированием и каталогизацией ссылок, присылаемых и публикуемых на форуме нашими читателями. Если вы являетесь правообладателем какого-либо представленного материала и не желаете чтобы ссылка на него находилась в нашем каталоге, свяжитесь с нами и мы незамедлительно удалим её. Файлы для обмена на трекере предоставлены пользователями сайта, и администрация не несёт ответственности за их содержание. Просьба не заливать файлы, защищенные авторскими правами, а также файлы нелегального содержания!