Discovery. Священная сталь [1-6 серии из 6] / Sacred Steel Bikes (2016) HDTVRip

 
 Статистика раздачи 
Размер: 7.73 ГБ   |  Зарегистрирован: 05 дек 2016, 17:29   |   .torrent скачан: 0 раз
Сидеров: 1  [ 0 байт/сек ]     Личеров: 0  [ 0 байт/сек ]  
  

Discovery. Священная сталь [1-6 серии из 6] / Sacred Steel Bikes (2016) HDTVRip

Сообщение explosiveone » 05 дек 2016, 17:29

Discovery. Священная сталь [1-6 серии из 6] / Sacred Steel Bikes (2016) HDTVRip

Телекомпания: США, Discovery Channel HD
Жанр: Документальный

Описание:
Для членов клуба «Священная сталь» мотоциклы – это не просто увлечение или способ заработка. Это стиль жизни, культура и даже отчасти религия. К команде присоединились представители самых разных профессий – от автомехаников и специалистов по металлу до менеджера по продажам. У них разные навыки и уровень мастерства, но всех объединяет одно – страсть к мотоциклам!



Продолжительность: ~ 00:44:00
Качество видео: HDTVRip
Перевод: Профессиональный (двухголосый, закадровый)

Видео: MPEG-4 AVC, 1280x720, ~4000 Кбит/с
Аудио: MP2, 2 ch, 192 Кбит/с

Релиз от:
Код: Выделить всё

           [b]Код:[/b] General
Unique ID                                : 315319157637339611136306368804749728707 (0xED3842C2097F4630CD56C88A015E5BC3)
Complete name                            Священная сталь\01 Священная сталь HitWay.mkv
Format                                   : Matroska
Format version                           : Version 2
File size                                : 1.30 GiB
Duration                                 : 44mn 11s
Overall bit rate mode                    : Constant
Overall bit rate                         : 4 196 Kbps
Writing application                      : Lavf54.63.104
Writing library                          : Lavf54.63.104 / Lavf54.63.104

Video
ID                                       : 1
Format                                   : AVC
Format/Info                              : Advanced Video Codec
Format profile                           :
Format settings, CABAC                   : Yes
Format settings, ReFrames                : 3 frames
Format settings, GOP                     : M=3, N=33
Codec ID                                 : V_MPEG4/ISO/AVC
Duration                                 : 44mn 11s
Bit rate mode                            : Constant
Bit rate                                 : 4 000 Kbps
Width                                    : 1 280 pixels
Height                                   : 720 pixels
Display aspect ratio                     : 16:9
Frame rate mode                          : Constant
Frame rate                               : 30.000 fps
Standard                                 : NTSC
Color space                              : YUV
Chroma subsampling                       : 4:2:0
Bit depth                                : 8 bits
Scan type                                : Progressive
Bits/(Pixel*Frame)                       : 0.145
Stream size                              : 1.21 GiB (93%)
Default                                  : No
Forced                                   : No
Color range                              : Limited
Color primaries                          : BT.709
Transfer characteristics                 : BT.709
Matrix coefficients                      : BT.709

Audio
ID                                       : 2
Format                                   : MPEG Audio
Format version                           : Version 1
Format profile                           : Layer 2
Codec ID                                 : A_MPEG/L2
Codec ID/Hint                            : MP2
Duration                                 : 44mn 11s
Bit rate mode                            : Constant
Bit rate                                 : 192 Kbps
Channel(s)                               : 2 channels
Sampling rate                            : 48.0 KHz
Compression mode                         : Lossy
Delay relative to video                  : 17ms
Stream size                              : 60.7 MiB (5%)
Language                                 : English
Default                                  : Yes
Forced                                   : No

Скриншоты:




Время раздачи: 24/7

 
Не забывайте говорить Спасибо. Не уходите с раздачи!   
Торрент: Зарегистрирован [05 дек 2016, 17:29] Для скачивания .torrent
необходима регистрация
Или скачать с помощью
MediaGet
Статус:
Проверен
 
.torrent скачан: 0 раз
Хэш: 1cf19e08a2f8d3a5c1543a8e0a816899392ba0c3
Размер: 7.73 ГБ (8 294 668 264 байт)
Стать Автором раздачи
 
 
Раздал: 100 ГБ
Скачал: 0 байт
Ратио: Seed.
Сообщения: 93573
Зарегистрирован: 09 апр 2015, 22:31


  • Похожие торренты
    Ответы
    Просмотры
    Последнее сообщение

Вернуться в Discovery

Ресурс не предоставляет электронные версии произведений, а занимается лишь коллекционированием и каталогизацией ссылок, присылаемых и публикуемых на форуме нашими читателями. Если вы являетесь правообладателем какого-либо представленного материала и не желаете чтобы ссылка на него находилась в нашем каталоге, свяжитесь с нами и мы незамедлительно удалим её. Файлы для обмена на трекере предоставлены пользователями сайта, и администрация не несёт ответственности за их содержание. Просьба не заливать файлы, защищенные авторскими правами, а также файлы нелегального содержания!
cron