Заторможенный рефлекс (Анатолий Эйрамджан) [2004, Комедия, DVB]

 
 Статистика раздачи 
Размер: 1.16 ГБ   |  Зарегистрирован: 03 дек 2016, 18:46   |   .torrent скачан: 536 раз
Сидеров: 21  [ 0 байт/сек ]     Личеров: 3  [ 0 байт/сек ]  
  

Заторможенный рефлекс (Анатолий Эйрамджан) [2004, Комедия, DVB]

Сообщение aLaVodka » 03 дек 2016, 18:46

Заторможенный рефлекс

Жанр: Комедия
Год выпуска: 2004
Продолжительность: 01:02:29
Режиссёр: Анатолий Эйрамджан

В ролях: Екатерина Зинченко, Дэвид Безуб, Виктор Ильичёв, Леонид Карпович

Описание: Успешный бизнесмен, чтобы на время хотя бы освободиться от надоевшей ровесницы-жены, отправил ее на отдых в Майами, приставив к ней на всякий случай одного из своих телохранителей, причем, самого неказистого, чтобы она не вздумала изменить ему с ним. Телохранитель слишком ревностно выполнял свои обязанности, следил за женой шефа так, что ни на секунду она не должна была выпасть из его поля зрения… Но, как известно, трава прорастает и сквозь асфальт… Появился Московский бизнесмен Роберт и сыграл роль катализатора в реакции «заторможенного рефлекса».

Доп. информация:
Сценарист: Анатолий Эйрамджан
Продюсер: Анатолий Эйрамджан



Релиз:

Запись потока *.ts с наземного цифрового телеканала "Беларусь 3".
Во время показа финальных титров происходит показ анонса следующей передачи - видно на скрине.

Благодарность: за помощь с недостающим материалом и . Обоим большое спасибо!

Мои раздачи:
Все

http://BY.rutracker.org/forum/tracker.php?rid=9778909
http://UA.rutracker.org/forum/tracker.php?rid=9778909

Избранные:

1) Я - гражданин Республики Беларусь. Архитектурные и художественные шедевры Беларуси [2008, RUS]
2) Государственная политика [Документальный цикл, TVRip, 2010]
3) Беларусь. Взгляд извне [2005, документальный сериал, TVRip]
4) Трилогия: Белая Русь, Чарующая Беларусь, Путешествие из Беларуси в Россию [2010-2011 г., Документальный, DVD5]
5) Правда о западной «демократии» и белорусском «тоталитаризме» [Беларусь 2011, Документальное расследование]
6) Задорнов в Беларуси. Беларусь - это значительно улучшенный Советский Союз [2010-2011 г., Интервью, TVRip]
7) [Журнал] Экономика Беларуси (16 номеров) [2007-2010, PDF, RUS]
8) Армия - Журнал Вооруженных сил республики Беларусь. (81 номер) [1996-2010, PDF, RUS]
9) Страна Моя, Беларусь! Заставка телеканал СТВ Минск. Белоруссия, Мир, Несвиж и др. zweizwei [2010, рекламный ролик, заставка, HD-Video]
10) Радзивиллы Несвижские владения Костел Божьего тела [2011 г., хроникально-документальный, TVRip]
11) Полёты на воздушном шаре. Новогрудок. Беларусь. zweizwei / Belarus Novogrudok [2010, HD-Video]
12) Полёты на воздушном шаре / Беларусь, Белоруссия, Гродно, Святск. zweizwei [2009, HD-Video]
13) Вид Гродно с высоты полета (Беларусь)/Выгляд Гродна з вышыні палёту паветранага шара [222]
14) Анархия Прямое действие. Беларусь [2011, документальный фильм, TVRip]
15) Психология девиации (АТН, Беларусь ТВ) [2010, Информационно-аналитические и общественно-политическиепередачи, TVRip]
16) Боль моя - Чернобыль (Беларусь, Коллектив Беларусь ТВ) [2011, Документлный, TVRip]
17) Попов хутор и его обитатели Русс ТВ [2011, Документальный, DVD5]
и сотни других...
Источник: собственный рип

Качество: DVB
Контейнер: TS
Видео кодек: H.264
Аудио кодек: MP2
Видео: MPEG4 Video (H264) 720(785)x576 (49:36) 25fps, 2 268 kb/s
Аудио: MPEG Audio 48000Hz stereo 256kbps

Сэмпл: https://www.sendspace.com
Код: Выделить всё
General
ID                             : 1 (0x1)
Complete name                  : D:\Новая  земля 2\Художественные фильмы\Заторможенный рефлекс (2004)\Заторможенный рефлекс (2004).ts
Format                         : MPEG-TS
File size                      : 1.16 GiB
Duration                       : 1 h 2 min
Overall bit rate mode          : Variable
Overall bit rate               : 2 658 kb/s

Video
ID                             : 801 (0x321)
Menu ID                        : 1 (0x1)
Format                         : AVC
Format/Info                    : Advanced Video Codec
Format profile                 : Main@L3
Format settings, CABAC         : Yes
Format settings, ReFrames      : 4 frames
Codec ID                       : 27
Duration                       : 1 h 2 min
Bit rate                       : 2 268 kb/s
Width                          : 720 pixels
Height                         : 576 pixels
Display aspect ratio           : 4:3
Frame rate                     : 25.000 FPS
Standard                       : PAL
Color space                    : YUV
Chroma subsampling             : 4:2:0
Bit depth                      : 8 bits
Scan type                      : MBAFF
Scan type, store method        : Separated fields
Scan order                     : Top Field First
Bits/(Pixel*Frame)             : 0.219
Stream size                    : 1 014 MiB (85%)
Color range                    : Limited
Color primaries                : BT.601 PAL
Transfer characteristics       : BT.470 System B, BT.470 System G
Matrix coefficients            : BT.601

Audio
ID                             : 802 (0x322)
Menu ID                        : 1 (0x1)
Format                         : MPEG Audio
Format version                 : Version 1
Format profile                 : Layer 2
Codec ID                       : 3
Duration                       : 1 h 2 min
Bit rate mode                  : Constant
Bit rate                       : 256 kb/s
Channel(s)                     : 2 channels
Sampling rate                  : 48.0 kHz
Compression mode               : Lossy
Stream size                    : 114 MiB (10%)
Language                       : English
 
Не забывайте говорить Спасибо. Не уходите с раздачи!   
Торрент: Зарегистрирован [03 дек 2016, 18:46] Для скачивания .torrent
необходима регистрация
Или скачать с помощью
MediaGet
Статус:
Проверен
 
.torrent скачан: 536 раз
Хэш: cb54b6a50362536a00b2a91b51c749fe9afac9a3
Размер: 1.16 ГБ (1 245 503 760 байт)
Стать Автором раздачи
 
 
Раздал: 100 ГБ
Скачал: 0 байт
Ратио: Seed.
Сообщения: 182341
Зарегистрирован: 09 апр 2015, 20:00


  • Похожие торренты
    Ответы
    Просмотры
    Последнее сообщение

Вернуться в Отечественные фильмы 2001-2005 года

Кто сейчас на конференции

Сейчас эту тему просматривают: нет зарегистрированных пользователей и гости: 1

Ресурс не предоставляет электронные версии произведений, а занимается лишь коллекционированием и каталогизацией ссылок, присылаемых и публикуемых на форуме нашими читателями. Если вы являетесь правообладателем какого-либо представленного материала и не желаете чтобы ссылка на него находилась в нашем каталоге, свяжитесь с нами и мы незамедлительно удалим её. Файлы для обмена на трекере предоставлены пользователями сайта, и администрация не несёт ответственности за их содержание. Просьба не заливать файлы, защищенные авторскими правами, а также файлы нелегального содержания!