Аляска. Семья из леса. / Alaskan Bush People (Jason Berman-Джейсон Берман, Ezra Epwell-Эзра Епвел, Zac Macfarlane-Зак МакФарлэйн) [2014-2016, 1-4 сезоны, Документальный, HDTV 1080i]

 
 Статистика раздачи 
Размер: 66.86 ГБ   |  Зарегистрирован: 03 дек 2016, 09:42   |   .torrent скачан: 0 раз
Сидеров: 1  [ 0 байт/сек ]     Личеров: 0  [ 0 байт/сек ]  
  

Аляска. Семья из леса. / Alaskan Bush People (Jason Berman-Джейсон Берман, Ezra Epwell-Эзра Епвел, Zac Macfarlane-Зак МакФарлэйн) [2014-2016, 1-4 сезоны, Документальный, HDTV 1080i]

Сообщение aLaVodka » 03 дек 2016, 09:42

Аляска. Семья из леса. / Alaskan Bush People

Дата/Год выпуска: 2014-2016
Страна: США
Жанр: Документальный
Продолжительность: 00:45:00
Перевод: Студийный (одноголосый закадровый)
Русские субтитры: нет

Оригинальная аудиодорожка: английский
Режиссер: Джейсон Берман(Jason Berman),Эзра Епвел(Ezra Epwell), Зак МакФарлэйн(Zac Macfarlane)

Телеканал: Discovery
Описание: Среди лесов Аляски живет семья, которой чужды прелести цивилизации и которая предпочитает глушь и уединение. Билли Браун, его жена Эми и их семеро детей, пять мальчиков и две девочки, поселились так далеко, что других людей они видят не чаще, чем раз в полгода. Члены этой семьи называют себя «волчьей стаей» – познакомьтесь с ними, посмотрев программу на Discovery Channel.

качество: HDTV 1080i
формат: TS, MKV
Видео: AVC, 1920х1080, 16:9, 7 000 Kbps, 30.000 fps
Видео: AVC, 1280х720, 16:9, 4 000 Kbps, 30.000 fps
Аудио: MPEG Audio, 224 Kbps, 48.0 KHz, 2 channels
Аудио: MPEG Audio, 192 Kbps, 48.0 KHz, 2 channels
Сэмпл: http://sendfile.su/1253521

Добавлены 8, 9 серии 3-сезон!

18.10.2016. Добавлены 1-4 серии 4-сезон!

21.10.2016. Добавлена 5 серия 4-сезон!

26.10.2016. Добавлена 6 серия 4-сезон!

01.11.2016. Добавлена 7 серия 4-сезон!

09.11.2016. Добавлена 8 серия 4-сезон!

11.11.2016. Добавлена 9 серия 4-сезон!

25.11.2016. Добавлена 10 серия 4-сезон!

03.12.2016. Добавлена 11 серия 4-сезон!
1. сезон (5-серий)
2. сезон (16-серий)
3. сезон (9-серий)
4. сезон (11-серий)
Код: Выделить всё
Общее
Кол-во                           : 278
Кол-во потоков такого типа       : 1
Тип потока                       : General
Тип потока                       : Общее
Идентификатор типа потока        : 0
Inform                           : Идентификатор                    : 1 (0x1)
Полное имя                       : D:\Аляска. Семья из леса\s01\02 Аляска семья из леса.ts
Формат                           : MPEG-TS
Размер файла                     : 2,29 Гбайт
Продолжительность                : 43 м.
Режим общего битрейта            : Постоянный
Общий поток                      : 7467 Кбит/сек

Идентификатор                    : 1
Идентификатор                    : 1 (0x1)
Кол-во видеопотоков              : 1
Кол-во аудиопотоков              : 1
Video_Format_List                : AVC
Video_Format_WithHint_List       : AVC
Видеокодеки                      : AVC
Audio_Format_List                : MPEG Audio
Audio_Format_WithHint_List       : MPEG Audio
Аудиокодеки                      : MPEG-1 Audio layer 2
Audio_Language_List              : English
Полное имя                       : D:\Аляска. Семья из леса\s01\02 Аляска семья из леса.ts
Имя папки                        : D:\Аляска. Семья из леса\s01
Имя файла                        : 02 Аляска семья из леса
Расширение                       : ts
Формат                           : MPEG-TS
Формат                           : MPEG-TS
Формат/Используется в            : ts m2t m2s m4t m4s ts tp trp
Коммерческое название            : MPEG-TS
Интернет-тип носителя            : video/MP2T
Кодек                            : MPEG-TS
Кодек                            : MPEG-TS
Кодек/Используется в             : ts m2t m2s m4t m4s ts tp trp
Размер файла                     : 2457587136
Размер файла                     : 2,29 Гбайт
Размер файла                     : 2 Гбайт
Размер файла                     : 2,3 Гбайт
Размер файла                     : 2,29 Гбайт
Размер файла                     : 2,289 Гбайт
Продолжительность                : 2633059.771667
Продолжительность                : 43 м.
Продолжительность                : 43 м. 53 с. 60 мс.
Продолжительность                : 43 м.
Продолжительность                : 00:43:53.060
Режим общего битрейта            : CBR
Режим общего битрейта            : Постоянный
Общий поток                      : 7466859
Общий поток                      : 7467 Кбит/сек
Задержка                         : 10.156667
Задержка                         : 10 мс.
Задержка                         : 10 мс.
Задержка                         : 10 мс.
Задержка                         : 00:00:00.010
Размер потока                    : 122228002
Размер потока                    : 117 Мбайт (5%)
Размер потока                    : 117 Мбайт
Размер потока                    : 117 Мбайт
Размер потока                    : 117 Мбайт
Размер потока                    : 116,6 Мбайт
Размер потока                    : 117 Мбайт (5%)
Пропорции потока                 : 0.04973
Дата файла                       : UTC 2016-07-16 12:23:06.975
Дата файла (местная)             : 2016-07-16 17:23:06.975
Дата изменения файла             : UTC 2016-07-16 13:09:24.304
Дата изменения файла (местная)   : 2016-07-16 18:09:24.304

Видео
Кол-во                           : 204
Кол-во потоков такого типа       : 1
Тип потока                       : Video
Тип потока                       : Видео
Идентификатор типа потока        : 0
Inform                           : Идентификатор                    : 224 (0xE0)
Идентификатор меню               : 1 (0x1)
Формат                           : AVC
Формат/Информация                : Advanced Video Codec
Профиль формата                  : High@L4.1
Параметр CABAC формата           : Да
Параметр ReFrames формата        : 3 кадра
Идентификатор кодека             : 27
Продолжительность                : 43 м.
Вид битрейта                     : Постоянный
Битрейт                          : 7000 Кбит/сек
Ширина                           : 1920 пикселей
Высота                           : 1080 пикселей
Соотношение сторон               : 16:9
Частота кадров                   : 30,000 кадров/сек
Стандарт вещания                 : NTSC
Цветовое пространство            : YUV
Субдискретизация насыщенности    : 4:2:0
Битовая глубина                  : 8 бит
Тип развёртки                    : Прогрессивная
Бит/(Пиксели*Кадры)              : 0.113
Размер потока                    : 2,11 Гбайт (92%)
Основные цвета                   : BT.709-5, BT.1361, IEC 61966-2-4, SMPTE RP177
Характеристики трансфера         : BT.709-5, BT.1361
Коэффициенты матрицы             : BT.709-5, BT.1361, IEC 61966-2-4 709, SMPTE RP177

Идентификатор                    : 224
Идентификатор                    : 224 (0xE0)
Идентификатор меню               : 1
Идентификатор меню               : 1 (0x1)
Формат                           : AVC
Формат/Информация                : Advanced Video Codec
Формат/Ссылка                    : [url=http://developers.videolan.org/x264.html]http://developers.videolan.org/x264.html[/url]
Коммерческое название            : AVC
Профиль формата                  : High@L4.1
Настройки формата                : CABAC / 3 Ref Frames
Параметр CABAC формата           : Yes
Параметр CABAC формата           : Да
Параметр ReFrames формата        : 3
Параметр ReFrames формата        : 3 кадра
Интернет-тип носителя            : video/H264
Идентификатор кодека             : 27
Кодек                            : AVC
Кодек                            : AVC
Кодек/Семейство                  : AVC
Кодек/Информация                 : Advanced Video Codec
Кодек/Ссылка                     : [url=http://developers.videolan.org/x264.html]http://developers.videolan.org/x264.html[/url]
Профиль кодека                   : High@L4.1
Настройки кодека                 : CABAC / 3 Ref Frames
Параметр CABAC кодека            : Yes
Codec_Settings_RefFrames         : 3
Продолжительность                : 2633000
Продолжительность                : 43 м.
Продолжительность                : 43 м. 53 с. 0 мс.
Продолжительность                : 43 м.
Продолжительность                : 00:43:53.000
Вид битрейта                     : CBR
Вид битрейта                     : Постоянный
Битрейт                          : 6999936
Битрейт                          : 7000 Кбит/сек
Ширина                           : 1920
Ширина                           : 1920 пикселей
Высота                           : 1080
Высота                           : 1080 пикселей
Пропорции пикселя                : 1.000
Соотношение сторон               : 1.778
Соотношение сторон               : 16:9
Частота кадров                   : 30.000
Частота кадров                   : 30,000 кадров/сек
Счётчик кадров                   : 78990
Стандарт вещания                 : NTSC
Разрешение                       : 8
Разрешение                       : 8 бит
Колориметрия                     : 4:2:0
Цветовое пространство            : YUV
Субдискретизация насыщенности    : 4:2:0
Битовая глубина                  : 8
Битовая глубина                  : 8 бит
Тип развёртки                    : Progressive
Тип развёртки                    : Прогрессивная
Переплетение                     : PPF
Переплетение                     : Прогрессивная
Бит/(Пиксели*Кадры)              : 0.113
Задержка                         : 200.000
Задержка                         : 200 мс.
Задержка                         : 200 мс.
Задержка                         : 200 мс.
Задержка                         : 00:00:00.200
Задержка в оригинале             : Container
Задержка в оригинале             : Контейнер
Размер потока                    : 2261636030
Размер потока                    : 2,11 Гбайт (92%)
Размер потока                    : 2 Гбайт
Размер потока                    : 2,1 Гбайт
Размер потока                    : 2,11 Гбайт
Размер потока                    : 2,106 Гбайт
Размер потока                    : 2,11 Гбайт (92%)
Пропорции потока                 : 0.92027
Размер буфера                    : 874944
Основные цвета                   : BT.709-5, BT.1361, IEC 61966-2-4, SMPTE RP177
Характеристики трансфера         : BT.709-5, BT.1361
Коэффициенты матрицы             : BT.709-5, BT.1361, IEC 61966-2-4 709, SMPTE RP177

Аудио
Кол-во                           : 169
Кол-во потоков такого типа       : 1
Тип потока                       : Audio
Тип потока                       : Аудио
Идентификатор типа потока        : 0
Inform                           : Идентификатор                    : 4097 (0x1001)
Идентификатор меню               : 1 (0x1)
Формат                           : MPEG Audio
Версия формата                   : Version 1
Профиль формата                  : Layer 2
Идентификатор кодека             : 3
Продолжительность                : 43 м.
Вид битрейта                     : Постоянный
Битрейт                          : 224 Кбит/сек
Каналы                           : 2 канала
Частота                          : 48,0 КГц
Метод сжатия                     : С потерями
Задержка видео                   : 21 мс.
Размер потока                    : 70,3 Мбайт (3%)
Язык                             : English

Идентификатор                    : 4097
Идентификатор                    : 4097 (0x1001)
Идентификатор меню               : 1
Идентификатор меню               : 1 (0x1)
Формат                           : MPEG Audio
Коммерческое название            : MPEG Audio
Версия формата                   : Version 1
Профиль формата                  : Layer 2
Интернет-тип носителя            : audio/mpeg
Идентификатор кодека             : 3
Кодек                            : MPA1L2
Кодек                            : MPEG-1 Audio layer 2
Продолжительность                : 2632968
Продолжительность                : 43 м.
Продолжительность                : 43 м. 52 с. 968 мс.
Продолжительность                : 43 м.
Продолжительность                : 00:43:52.968
Вид битрейта                     : CBR
Вид битрейта                     : Постоянный
Битрейт                          : 224000
Битрейт                          : 224 Кбит/сек
Каналы                           : 2
Каналы                           : 2 канала
Частота                          : 48000
Частота                          : 48,0 КГц
Количество образцов              : 126382464
Счётчик кадров                   : 109707
Метод сжатия                     : Lossy
Метод сжатия                     : С потерями
Задержка                         : 221.300
Задержка                         : 221 мс.
Задержка                         : 221 мс.
Задержка                         : 221 мс.
Задержка                         : 00:00:00.221
Задержка в оригинале             : Container
Задержка в оригинале             : Контейнер
Задержка видео                   : 21
Задержка видео                   : 21 мс.
Задержка видео                   : 21 мс.
Задержка видео                   : 21 мс.
Задержка видео                   : 00:00:00.021
Задержка видео                   : 21
Задержка видео                   : 21 мс.
Задержка видео                   : 21 мс.
Задержка видео                   : 21 мс.
Задержка видео                   : 00:00:00.021
Размер потока                    : 73723104
Размер потока                    : 70,3 Мбайт (3%)
Размер потока                    : 70 Мбайт
Размер потока                    : 70 Мбайт
Размер потока                    : 70,3 Мбайт
Размер потока                    : 70,31 Мбайт
Размер потока                    : 70,3 Мбайт (3%)
Пропорции потока                 : 0.03000
Язык                             : en
Язык                             : English
Язык                             : English
Язык                             : en
Язык                             : eng
Язык                             : en
Код: Выделить всё
Общее
Кол-во                           : 278
Кол-во потоков такого типа       : 1
Тип потока                       : General
Тип потока                       : Общее
Идентификатор типа потока        : 0
Inform                           : Кол-во                           : 278
Кол-во потоков такого типа       : 1
Тип потока                       : General
Тип потока                       : Общее
Идентификатор типа потока        : 0
Inform                           : Кол-во                           : 278
Кол-во потоков такого типа       : 1
Тип потока                       : General
Тип потока                       : Общее
Идентификатор типа потока        : 0
Inform                           : Matroska: 1,28 Гбайт, 43 м.
Уникальный идентификатор         : 87923517921501310034661766083730590631
Уникальный идентификатор         : 87923517921501310034661766083730590631 (0x4225741F011C8F6E3E0EEFF30731CBA7)
Кол-во видеопотоков              : 1
Кол-во аудиопотоков              : 1
Video_Format_List                : AVC
Video_Format_WithHint_List       : AVC
Видеокодеки                      : AVC
Video_Language_List              : English
Audio_Format_List                : MPEG Audio
Audio_Format_WithHint_List       : MPEG Audio (MP2)
Аудиокодеки                      : MPEG-1 Audio layer 2
Audio_Language_List              : English
Полное имя                       : D:\Кино\Аляска. Семья из леса\s04\01 Аляска семья из леса.mkv
Имя папки                        : D:\Кино\Аляска. Семья из леса\s04
Имя файла                        : 01 Аляска семья из леса
Расширение                       : mkv
Формат                           : Matroska
Формат                           : Matroska
Формат/Ссылка                    : [url=http://packs.matroska.org/]http://packs.matroska.org/[/url]
Формат/Используется в            : mkv mk3d mka mks
Коммерческое название            : Matroska
Версия формата                   : Version 2
Кодек                            : Matroska
Кодек                            : Matroska
Кодек/Ссылка                     : [url=http://packs.matroska.org/]http://packs.matroska.org/[/url]
Кодек/Используется в             : mkv mk3d mka mks
Размер файла                     : 1378054874
Размер файла                     : 1,28 Гбайт
Размер файла                     : 1 Гбайт
Размер файла                     : 1,3 Гбайт
Размер файла                     : 1,28 Гбайт
Размер файла                     : 1,283 Гбайт
Продолжительность                : 2627366
Продолжительность                : 43 м.
Продолжительность                : 43 м. 47 с. 366 мс.
Продолжительность                : 43 м.
Продолжительность                : 00:43:47.366
Режим общего битрейта            : CBR
Режим общего битрейта            : Постоянный
Общий поток                      : 4196004
Общий поток                      : 4196 Кбит/сек
Размер потока                    : 27422893
Размер потока                    : 26,2 Мбайт (2%)
Размер потока                    : 26 Мбайт
Размер потока                    : 26 Мбайт
Размер потока                    : 26,2 Мбайт
Размер потока                    : 26,15 Мбайт
Размер потока                    : 26,2 Мбайт (2%)
Пропорции потока                 : 0.01990
Дата файла                       : UTC 2016-10-18 06:43:44.228
Дата файла (местная)             : 2016-10-18 11:43:44.228
Дата изменения файла             : UTC 2016-10-18 05:53:30.201
Дата изменения файла (местная)   : 2016-10-18 10:53:30.201
Программа кодирования            : Lavf54.63.104
Библиотека кодирования           : Lavf54.63.104
Библиотека кодирования           : Lavf54.63.104

Уникальный идентификатор         : 87923517921501310034661766083730590631
Уникальный идентификатор         : 87923517921501310034661766083730590631 (0x4225741F011C8F6E3E0EEFF30731CBA7)
Кол-во видеопотоков              : 1
Кол-во аудиопотоков              : 1
Video_Format_List                : AVC
Video_Format_WithHint_List       : AVC
Видеокодеки                      : AVC
Video_Language_List              : English
Audio_Format_List                : MPEG Audio
Audio_Format_WithHint_List       : MPEG Audio (MP2)
Аудиокодеки                      : MPEG-1 Audio layer 2
Audio_Language_List              : English
Полное имя                       : D:\Кино\Аляска. Семья из леса\s04\01 Аляска семья из леса.mkv
Имя папки                        : D:\Кино\Аляска. Семья из леса\s04
Имя файла                        : 01 Аляска семья из леса
Расширение                       : mkv
Формат                           : Matroska
Формат                           : Matroska
Формат/Ссылка                    : [url=http://packs.matroska.org/]http://packs.matroska.org/[/url]
Формат/Используется в            : mkv mk3d mka mks
Коммерческое название            : Matroska
Версия формата                   : Version 2
Кодек                            : Matroska
Кодек                            : Matroska
Кодек/Ссылка                     : [url=http://packs.matroska.org/]http://packs.matroska.org/[/url]
Кодек/Используется в             : mkv mk3d mka mks
Размер файла                     : 1378054874
Размер файла                     : 1,28 Гбайт
Размер файла                     : 1 Гбайт
Размер файла                     : 1,3 Гбайт
Размер файла                     : 1,28 Гбайт
Размер файла                     : 1,283 Гбайт
Продолжительность                : 2627366
Продолжительность                : 43 м.
Продолжительность                : 43 м. 47 с. 366 мс.
Продолжительность                : 43 м.
Продолжительность                : 00:43:47.366
Режим общего битрейта            : CBR
Режим общего битрейта            : Постоянный
Общий поток                      : 4196004
Общий поток                      : 4196 Кбит/сек
Размер потока                    : 27422893
Размер потока                    : 26,2 Мбайт (2%)
Размер потока                    : 26 Мбайт
Размер потока                    : 26 Мбайт
Размер потока                    : 26,2 Мбайт
Размер потока                    : 26,15 Мбайт
Размер потока                    : 26,2 Мбайт (2%)
Пропорции потока                 : 0.01990
Дата файла                       : UTC 2016-10-18 06:43:44.228
Дата файла (местная)             : 2016-10-18 11:43:44.228
Дата изменения файла             : UTC 2016-10-18 05:53:30.201
Дата изменения файла (местная)   : 2016-10-18 10:53:30.201
Программа кодирования            : Lavf54.63.104
Библиотека кодирования           : Lavf54.63.104
Библиотека кодирования           : Lavf54.63.104

Уникальный идентификатор         : 87923517921501310034661766083730590631
Уникальный идентификатор         : 87923517921501310034661766083730590631 (0x4225741F011C8F6E3E0EEFF30731CBA7)
Кол-во видеопотоков              : 1
Кол-во аудиопотоков              : 1
Video_Format_List                : AVC
Video_Format_WithHint_List       : AVC
Видеокодеки                      : AVC
Video_Language_List              : English
Audio_Format_List                : MPEG Audio
Audio_Format_WithHint_List       : MPEG Audio (MP2)
Аудиокодеки                      : MPEG-1 Audio layer 2
Audio_Language_List              : English
Полное имя                       : D:\Кино\Аляска. Семья из леса\s04\01 Аляска семья из леса.mkv
Имя папки                        : D:\Кино\Аляска. Семья из леса\s04
Имя файла                        : 01 Аляска семья из леса
Расширение                       : mkv
Формат                           : Matroska
Формат                           : Matroska
Формат/Ссылка                    : [url=http://packs.matroska.org/]http://packs.matroska.org/[/url]
Формат/Используется в            : mkv mk3d mka mks
Коммерческое название            : Matroska
Версия формата                   : Version 2
Кодек                            : Matroska
Кодек                            : Matroska
Кодек/Ссылка                     : [url=http://packs.matroska.org/]http://packs.matroska.org/[/url]
Кодек/Используется в             : mkv mk3d mka mks
Размер файла                     : 1378054874
Размер файла                     : 1,28 Гбайт
Размер файла                     : 1 Гбайт
Размер файла                     : 1,3 Гбайт
Размер файла                     : 1,28 Гбайт
Размер файла                     : 1,283 Гбайт
Продолжительность                : 2627366
Продолжительность                : 43 м.
Продолжительность                : 43 м. 47 с. 366 мс.
Продолжительность                : 43 м.
Продолжительность                : 00:43:47.366
Режим общего битрейта            : CBR
Режим общего битрейта            : Постоянный
Общий поток                      : 4196004
Общий поток                      : 4196 Кбит/сек
Размер потока                    : 27422893
Размер потока                    : 26,2 Мбайт (2%)
Размер потока                    : 26 Мбайт
Размер потока                    : 26 Мбайт
Размер потока                    : 26,2 Мбайт
Размер потока                    : 26,15 Мбайт
Размер потока                    : 26,2 Мбайт (2%)
Пропорции потока                 : 0.01990
Дата файла                       : UTC 2016-10-18 06:43:44.228
Дата файла (местная)             : 2016-10-18 11:43:44.228
Дата изменения файла             : UTC 2016-10-18 05:53:30.201
Дата изменения файла (местная)   : 2016-10-18 10:53:30.201
Программа кодирования            : Lavf54.63.104
Библиотека кодирования           : Lavf54.63.104
Библиотека кодирования           : Lavf54.63.104

Видео
Кол-во                           : 204
Кол-во потоков такого типа       : 1
Тип потока                       : Video
Тип потока                       : Видео
Идентификатор типа потока        : 0
Inform                           : Кол-во                           : 204
Кол-во потоков такого типа       : 1
Тип потока                       : Video
Тип потока                       : Видео
Идентификатор типа потока        : 0
Inform                           : English, 4000 Кбит/сек, 1280*720 (16:9), в 30,000 кадров/сек, AVC (NTSC) (High@L4.1) (CABAC / 3 Ref Frames)
Идентификатор                    : 1
Идентификатор                    : 1
Уникальный идентификатор         : 1
Формат                           : AVC
Формат/Информация                : Advanced Video Codec
Формат/Ссылка                    : [url=http://developers.videolan.org/x264.html]http://developers.videolan.org/x264.html[/url]
Коммерческое название            : AVC
Профиль формата                  : High@L4.1
Настройки формата                : CABAC / 3 Ref Frames
Параметр CABAC формата           : Yes
Параметр CABAC формата           : Да
Параметр ReFrames формата        : 3
Параметр ReFrames формата        : 3 кадра
Интернет-тип носителя            : video/H264
Идентификатор кодека             : V_MPEG4/ISO/AVC
Идентификатор кодека/Ссылка      : [url=http://ffdshow-tryout.sourceforge.net/]http://ffdshow-tryout.sourceforge.net/[/url]
Кодек                            : V_MPEG4/ISO/AVC
Кодек                            : AVC
Кодек/Семейство                  : AVC
Кодек/Информация                 : Advanced Video Codec
Кодек/Ссылка                     : [url=http://ffdshow-tryout.sourceforge.net/]http://ffdshow-tryout.sourceforge.net/[/url]
Профиль кодека                   : High@L4.1
Настройки кодека                 : CABAC / 3 Ref Frames
Параметр CABAC кодека            : Yes
Codec_Settings_RefFrames         : 3
Продолжительность                : 2627367
Продолжительность                : 43 м.
Продолжительность                : 43 м. 47 с. 367 мс.
Продолжительность                : 43 м.
Продолжительность                : 00:43:47.367
Вид битрейта                     : CBR
Вид битрейта                     : Постоянный
Битрейт                          : 4000000
Битрейт                          : 4000 Кбит/сек
Ширина                           : 1280
Ширина                           : 1280 пикселей
Высота                           : 720
Высота                           : 720 пикселей
Пропорции пикселя                : 1.000
Соотношение сторон               : 1.778
Соотношение сторон               : 16:9
Частота кадров                   : 30.000
Частота кадров                   : 30,000 кадров/сек
Счётчик кадров                   : 78821
Стандарт вещания                 : NTSC
Разрешение                       : 8
Разрешение                       : 8 бит
Колориметрия                     : 4:2:0
Цветовое пространство            : YUV
Субдискретизация насыщенности    : 4:2:0
Битовая глубина                  : 8
Битовая глубина                  : 8 бит
Тип развёртки                    : Progressive
Тип развёртки                    : Прогрессивная
Переплетение                     : PPF
Переплетение                     : Прогрессивная
Бит/(Пиксели*Кадры)              : 0.145
Задержка                         : 65736
Задержка                         : 1 м. 5 с.
Задержка                         : 1 м. 5 с. 736 мс.
Задержка                         : 1 м. 5 с.
Задержка                         : 00:01:05.736
Задержка в оригинале             : Container
Задержка в оригинале             : Контейнер
Размер потока                    : 1287575197
Размер потока                    : 1,20 Гбайт (93%)
Размер потока                    : 1 Гбайт
Размер потока                    : 1,2 Гбайт
Размер потока                    : 1,20 Гбайт
Размер потока                    : 1,199 Гбайт
Размер потока                    : 1,20 Гбайт (93%)
Пропорции потока                 : 0.93434
Язык                             : en
Язык                             : English
Язык                             : English
Язык                             : en
Язык                             : eng
Язык                             : en
Размер буфера                    : 500000
Основные цвета                   : BT.709-5, BT.1361, IEC 61966-2-4, SMPTE RP177
Характеристики трансфера         : BT.709-5, BT.1361
Коэффициенты матрицы             : BT.709-5, BT.1361, IEC 61966-2-4 709, SMPTE RP177

Идентификатор                    : 1
Идентификатор                    : 1
Уникальный идентификатор         : 1
Формат                           : AVC
Формат/Информация                : Advanced Video Codec
Формат/Ссылка                    : [url=http://developers.videolan.org/x264.html]http://developers.videolan.org/x264.html[/url]
Коммерческое название            : AVC
Профиль формата                  : High@L4.1
Настройки формата                : CABAC / 3 Ref Frames
Параметр CABAC формата           : Yes
Параметр CABAC формата           : Да
Параметр ReFrames формата        : 3
Параметр ReFrames формата        : 3 кадра
Интернет-тип носителя            : video/H264
Идентификатор кодека             : V_MPEG4/ISO/AVC
Идентификатор кодека/Ссылка      : [url=http://ffdshow-tryout.sourceforge.net/]http://ffdshow-tryout.sourceforge.net/[/url]
Кодек                            : V_MPEG4/ISO/AVC
Кодек                            : AVC
Кодек/Семейство                  : AVC
Кодек/Информация                 : Advanced Video Codec
Кодек/Ссылка                     : [url=http://ffdshow-tryout.sourceforge.net/]http://ffdshow-tryout.sourceforge.net/[/url]
Профиль кодека                   : High@L4.1
Настройки кодека                 : CABAC / 3 Ref Frames
Параметр CABAC кодека            : Yes
Codec_Settings_RefFrames         : 3
Продолжительность                : 2627367
Продолжительность                : 43 м.
Продолжительность                : 43 м. 47 с. 367 мс.
Продолжительность                : 43 м.
Продолжительность                : 00:43:47.367
Вид битрейта                     : CBR
Вид битрейта                     : Постоянный
Битрейт                          : 4000000
Битрейт                          : 4000 Кбит/сек
Ширина                           : 1280
Ширина                           : 1280 пикселей
Высота                           : 720
Высота                           : 720 пикселей
Пропорции пикселя                : 1.000
Соотношение сторон               : 1.778
Соотношение сторон               : 16:9
Частота кадров                   : 30.000
Частота кадров                   : 30,000 кадров/сек
Счётчик кадров                   : 78821
Стандарт вещания                 : NTSC
Разрешение                       : 8
Разрешение                       : 8 бит
Колориметрия                     : 4:2:0
Цветовое пространство            : YUV
Субдискретизация насыщенности    : 4:2:0
Битовая глубина                  : 8
Битовая глубина                  : 8 бит
Тип развёртки                    : Progressive
Тип развёртки                    : Прогрессивная
Переплетение                     : PPF
Переплетение                     : Прогрессивная
Бит/(Пиксели*Кадры)              : 0.145
Задержка                         : 65736
Задержка                         : 1 м. 5 с.
Задержка                         : 1 м. 5 с. 736 мс.
Задержка                         : 1 м. 5 с.
Задержка                         : 00:01:05.736
Задержка в оригинале             : Container
Задержка в оригинале             : Контейнер
Размер потока                    : 1287575197
Размер потока                    : 1,20 Гбайт (93%)
Размер потока                    : 1 Гбайт
Размер потока                    : 1,2 Гбайт
Размер потока                    : 1,20 Гбайт
Размер потока                    : 1,199 Гбайт
Размер потока                    : 1,20 Гбайт (93%)
Пропорции потока                 : 0.93434
Язык                             : en
Язык                             : English
Язык                             : English
Язык                             : en
Язык                             : eng
Язык                             : en
Размер буфера                    : 500000
Основные цвета                   : BT.709-5, BT.1361, IEC 61966-2-4, SMPTE RP177
Характеристики трансфера         : BT.709-5, BT.1361
Коэффициенты матрицы             : BT.709-5, BT.1361, IEC 61966-2-4 709, SMPTE RP177

Аудио
Кол-во                           : 169
Кол-во потоков такого типа       : 1
Тип потока                       : Audio
Тип потока                       : Аудио
Идентификатор типа потока        : 0
Inform                           : Кол-во                           : 169
Кол-во потоков такого типа       : 1
Тип потока                       : Audio
Тип потока                       : Аудио
Идентификатор типа потока        : 0
Inform                           : English, 192 Кбит/сек, 48,0 КГц, 2 канала, MPEG Audio (MP2) (Version 1) (Layer 2)
Идентификатор                    : 2
Идентификатор                    : 2
Уникальный идентификатор         : 2
Формат                           : MPEG Audio
Коммерческое название            : MPEG Audio
Версия формата                   : Version 1
Профиль формата                  : Layer 2
Интернет-тип носителя            : audio/mpeg
Идентификатор кодека             : A_MPEG/L2
Идентификатор кодека/Подсказка   : MP2
Идентификатор кодека/Ссылка      : [url=http://www.iis.fraunhofer.de/amm/index.html]http://www.iis.fraunhofer.de/amm/index.html[/url]
Кодек                            : MPA1L2
Кодек                            : MPEG-1 Audio layer 2
Кодек/Семейство                  : MPEG-A
Кодек/Информация                 : MPEG1 or 2 Audio layer 2
Кодек/Ссылка                     : [url=http://www.iis.fraunhofer.de/amm/index.html]http://www.iis.fraunhofer.de/amm/index.html[/url]
Продолжительность                : 2627366
Продолжительность                : 43 м.
Продолжительность                : 43 м. 47 с. 366 мс.
Продолжительность                : 43 м.
Продолжительность                : 00:43:47.366
Вид битрейта                     : CBR
Вид битрейта                     : Постоянный
Битрейт                          : 192000
Битрейт                          : 192 Кбит/сек
Каналы                           : 2
Каналы                           : 2 канала
Частота                          : 48000
Частота                          : 48,0 КГц
Количество образцов              : 126113568
Метод сжатия                     : Lossy
Метод сжатия                     : С потерями
Задержка                         : 217
Задержка                         : 217 мс.
Задержка                         : 217 мс.
Задержка                         : 217 мс.
Задержка                         : 00:00:00.217
Задержка в оригинале             : Container
Задержка в оригинале             : Контейнер
Задержка видео                   : -65519
Задержка видео                   : -1 м. 5 с.
Задержка видео                   : -1 м. 5 с. 519 мс.
Задержка видео                   : -1 м. 5 с.
Задержка видео                   : -00:01:05.519
Задержка видео                   : -65519
Задержка видео                   : -1 м. 5 с.
Задержка видео                   : -1 м. 5 с. 519 мс.
Задержка видео                   : -1 м. 5 с.
Задержка видео                   : -00:01:05.519
Размер потока                    : 63056784
Размер потока                    : 60,1 Мбайт (5%)
Размер потока                    : 60 Мбайт
Размер потока                    : 60 Мбайт
Размер потока                    : 60,1 Мбайт
Размер потока                    : 60,14 Мбайт
Размер потока                    : 60,1 Мбайт (5%)
Пропорции потока                 : 0.04576
Язык                             : en
Язык                             : English
Язык                             : English
Язык                             : en
Язык                             : eng
Язык                             : en

Идентификатор                    : 2
Идентификатор                    : 2
Уникальный идентификатор         : 2
Формат                           : MPEG Audio
Коммерческое название            : MPEG Audio
Версия формата                   : Version 1
Профиль формата                  : Layer 2
Интернет-тип носителя            : audio/mpeg
Идентификатор кодека             : A_MPEG/L2
Идентификатор кодека/Подсказка   : MP2
Идентификатор кодека/Ссылка      : [url=http://www.iis.fraunhofer.de/amm/index.html]http://www.iis.fraunhofer.de/amm/index.html[/url]
Кодек                            : MPA1L2
Кодек                            : MPEG-1 Audio layer 2
Кодек/Семейство                  : MPEG-A
Кодек/Информация                 : MPEG1 or 2 Audio layer 2
Кодек/Ссылка                     : [url=http://www.iis.fraunhofer.de/amm/index.html]http://www.iis.fraunhofer.de/amm/index.html[/url]
Продолжительность                : 2627366
Продолжительность                : 43 м.
Продолжительность                : 43 м. 47 с. 366 мс.
Продолжительность                : 43 м.
Продолжительность                : 00:43:47.366
Вид битрейта                     : CBR
Вид битрейта                     : Постоянный
Битрейт                          : 192000
Битрейт                          : 192 Кбит/сек
Каналы                           : 2
Каналы                           : 2 канала
Частота                          : 48000
Частота                          : 48,0 КГц
Количество образцов              : 126113568
Метод сжатия                     : Lossy
Метод сжатия                     : С потерями
Задержка                         : 217
Задержка                         : 217 мс.
Задержка                         : 217 мс.
Задержка                         : 217 мс.
Задержка                         : 00:00:00.217
Задержка в оригинале             : Container
Задержка в оригинале             : Контейнер
Задержка видео                   : -65519
Задержка видео                   : -1 м. 5 с.
Задержка видео                   : -1 м. 5 с. 519 мс.
Задержка видео                   : -1 м. 5 с.
Задержка видео                   : -00:01:05.519
Задержка видео                   : -65519
Задержка видео                   : -1 м. 5 с.
Задержка видео                   : -1 м. 5 с. 519 мс.
Задержка видео                   : -1 м. 5 с.
Задержка видео                   : -00:01:05.519
Размер потока                    : 63056784
Размер потока                    : 60,1 Мбайт (5%)
Размер потока                    : 60 Мбайт
Размер потока                    : 60 Мбайт
Размер потока                    : 60,1 Мбайт
Размер потока                    : 60,14 Мбайт
Размер потока                    : 60,1 Мбайт (5%)
Пропорции потока                 : 0.04576
Язык                             : en
Язык                             : English
Язык                             : English
Язык                             : en
Язык                             : eng
Язык                             : en

 
Не забывайте говорить Спасибо. Не уходите с раздачи!   
Торрент: Зарегистрирован [03 дек 2016, 09:42] Для скачивания .torrent
необходима регистрация
Или скачать с помощью
MediaGet
Статус:
Проверен
 
.torrent скачан: 0 раз
Хэш: cb6b2d160a3f5067f9bb6633cd8185daef380fbd
Размер: 66.86 ГБ (71 785 259 916 байт)
Стать Автором раздачи
 
 
Раздал: 100 ГБ
Скачал: 0 байт
Ратио: Seed.
Сообщения: 188762
Зарегистрирован: 09 апр 2015, 20:00


  • Похожие торренты
    Ответы
    Просмотры
    Последнее сообщение

Вернуться в BBC, Discovery, National Geographic (HD Video)

Ресурс не предоставляет электронные версии произведений, а занимается лишь коллекционированием и каталогизацией ссылок, присылаемых и публикуемых на форуме нашими читателями. Если вы являетесь правообладателем какого-либо представленного материала и не желаете чтобы ссылка на него находилась в нашем каталоге, свяжитесь с нами и мы незамедлительно удалим её. Файлы для обмена на трекере предоставлены пользователями сайта, и администрация не несёт ответственности за их содержание. Просьба не заливать файлы, защищенные авторскими правами, а также файлы нелегального содержания!
cron