National Geographic: Широкий взгляд с Кэлом Пенном (1 сезон 12 серий из 12) / The Big Picture with Kal Penn (Майкл Нигро / Michael Nigro) [2015, Документальный, популярная статистика, HDTV 1080i]

 
 Статистика раздачи 
Размер: 16.9 ГБ   |  Зарегистрирован: 02 дек 2016, 18:59   |   .torrent скачан: 161 раз
Сидеров: 2  [ 0 байт/сек ]     Личеров: 0  [ 0 байт/сек ]  
  

National Geographic: Широкий взгляд с Кэлом Пенном (1 сезон 12 серий из 12) / The Big Picture with Kal Penn (Майкл Нигро / Michael Nigro) [2015, Документальный, популярная статистика, HDTV 1080i]

Сообщение aLaVodka » 02 дек 2016, 18:59

Широкий взгляд с Кэлом Пенном / The Big Picture with Kal Penn

Год выпуска: 2015
Страна: США
Студия: National Geographic Television
Жанр: Документальный, популярная статистика
Продолжительность: 7x ~ 00:22:00
Перевод: Студийный (одноголосый закадровый)
Режиссер: Майкл Нигро / Michael Nigro

Описание: Кэл Пенн с помощью разной информации,карт и таблиц покажет нам мир в совсем другом ракурсе. В каждой серии нас ожидают удивительные факты о таких темах, как технологии, деньги, еда, преступность и спорт, узнаем, как работает мир, как мы здесь оказались и даже куда направляемся.

Сэмпл: https://www.sendspace.com/file/c0a0gx

Тип релиза: HDTV 1080i
Контейнер: TS

Видео: 1920x1080 (16:9), 25 fps, AVC (x264), High@L4.1, 7749-8159 kbps, 25fps, 0.149 bit/pixel
Аудио: Русский 48.0 KHz, AC3 6 ch (Front: L C R, Side: L R, LFE) ch, ~448.00 kbps avg
Аудио 2: Английский 48.0 KHz, AC3 6 ch (Front: L C R, Side: L R, LFE) ch, ~448.00 kbps avg
01. Crime, Inc / Преступная корпорация
Кэл Пенн прослеживает основные маршруты для незаконной деятельности по всему миру, торговля наркотиками, зависимость некоторых отраслкй промышленности от преступной деятельности.
02. Treasure Hunt / Поиск сокровищ
Охота на настоящее сокровище, которое можно найти в любом месте от вашего собственного дома, чтобы похоронили глубоко под землей, если вы просто следовать данным.
03. Surviving Nature's Fury / Пережить стихию
Окунитесь в мир природных катастроф и узнайте, как люди справляются с самыми экстремальными условиями в тех местах планеты, где буйствуют стихии.
04 Going Viral / Эпидемии
Исследование причин и движущих сил мировых эпидемий, и объясняет, что делает их более опасными, чем мы думаем.
05. Off the Map / Терра инкогнито
Кэл Пенн исследует такие повседневные технологии, как GPS и спутниковое телевидение, благодаря которым космос стал для нас чем-то привычным.
06. Eat This! / Ешь это!
Соус с саранчой, пицца для похудения и самодельное виски - Кэл Пенн хочет разобраться в этом и выяснить, действительно ли мы - то, что мы едим.
07. Space Invasion / Освоение космоса
Космос намного блихе чем мы думаем - метеорология, телевидение, GPS...
08. Body City / Тело-город
Meet doctors who grow body parts in labs, scientists who study rotting bodies, and biohackers with magnets
09. Born to Be Wired / Жизнь в сети
Нынешний кибермир создан из реальных мест, и эти локации значат больше, чем вы можете подумать. Кэл проводит анализ того, как мы соединены.
10. Cash for Trash / Деньги из мусора
По всему миру есть люди, делающие "деньги, которые пахнут", и эти деньги они зарабатывают на вашем мусоре.
11. Fantasy Sports / Фантастический спорт
Кэл Пенн пытается создать идеальную спортивную команду с лучшими в мире игроками, тренерами, площадками, болельщиками и даже с лучшим талисманом.
12. Sex Drive / Либидо
Узнать, что происходит в спальнях по всему миру, включая даже самые интимные подробности.
Код: Выделить всё
General
ID                          : 1 (0x1)
Complete name               : F:\Наладки\Широкий взгляд\12. ШИРОКИЙ ВЗГЛЯД_Либидо.ts
Format                      : MPEG-TS
File size                   : 1.39 GiB
Duration                    : 21mn 51s
Overall bit rate mode       : Variable
Overall bit rate            : 9 102 Kbps

Video
ID                          : 302 (0x12E)
Menu ID                     : 26002 (0x6592)
Format                      : AVC
Format/Info                 : Advanced Video Codec
Format profile              : High@L4
Format settings, CABAC      : Yes
Format settings, ReFrames   : 4 frames
Codec ID                    : 27
Duration                    : 21mn 51s
Bit rate                    : 7 747 Kbps
Width                       : 1 920 pixels
Height                      : 1 080 pixels
Display aspect ratio        : 16:9
Frame rate                  : 25.000 fps
Standard                    : Component
Color space                 : YUV
Chroma subsampling          : 4:2:0
Bit depth                   : 8 bits
Scan type                   : Interlaced
Scan type, store method     : Separated fields
Scan order                  : Top Field First
Bits/(Pixel*Frame)          : 0.149
Stream size                 : 1.18 GiB (85%)
Color range                 : Limited
Color primaries             : BT.709
Transfer characteristics    : BT.709
Matrix coefficients         : BT.709

Audio #1
ID                          : 402 (0x192)
Menu ID                     : 26002 (0x6592)
Format                      : AC-3
Format/Info                 : Audio Coding 3
Mode extension              : CM (complete main)
Format settings, Endianness : Big
Codec ID                    : 6
Duration                    : 21mn 51s
Bit rate mode               : Constant
Bit rate                    : 448 Kbps
Channel(s)                  : 6 channels
Channel positions           : Front: L C R, Side: L R, LFE
Sampling rate               : 48.0 KHz
Frame rate                  : 31.250 fps (1536 spf)
Compression mode            : Lossy
Delay relative to video     : -120ms
Stream size                 : 70.0 MiB (5%)
Language                    : Russian

Audio #2
ID                          : 403 (0x193)
Menu ID                     : 26002 (0x6592)
Format                      : AC-3
Format/Info                 : Audio Coding 3
Mode extension              : CM (complete main)
Format settings, Endianness : Big
Codec ID                    : 6
Duration                    : 21mn 51s
Bit rate mode               : Constant
Bit rate                    : 448 Kbps
Channel(s)                  : 6 channels
Channel positions           : Front: L C R, Side: L R, LFE
Sampling rate               : 48.0 KHz
Frame rate                  : 31.250 fps (1536 spf)
Compression mode            : Lossy
Delay relative to video     : -120ms
Stream size                 : 70.0 MiB (5%)
Language                    : English
 
Не забывайте говорить Спасибо. Не уходите с раздачи!   
Торрент: Зарегистрирован [02 дек 2016, 18:59] Для скачивания .torrent
необходима регистрация
Или скачать с помощью
MediaGet
Статус:
Проверен
 
.torrent скачан: 161 раз
Хэш: fc6896f8f5cd001a9f9db94d6547fb972b78a6f4
Размер: 16.9 ГБ (18 141 737 500 байт)
Стать Автором раздачи
 
 
Раздал: 100 ГБ
Скачал: 0 байт
Ратио: Seed.
Сообщения: 187792
Зарегистрирован: 09 апр 2015, 20:00


Вернуться в BBC, Discovery, National Geographic (HD Video)

Ресурс не предоставляет электронные версии произведений, а занимается лишь коллекционированием и каталогизацией ссылок, присылаемых и публикуемых на форуме нашими читателями. Если вы являетесь правообладателем какого-либо представленного материала и не желаете чтобы ссылка на него находилась в нашем каталоге, свяжитесь с нами и мы незамедлительно удалим её. Файлы для обмена на трекере предоставлены пользователями сайта, и администрация не несёт ответственности за их содержание. Просьба не заливать файлы, защищенные авторскими правами, а также файлы нелегального содержания!
cron