Американские принцессы на миллион долларов (2 сезон: 3 серии из 4) / Million Dollar American Princesses (Йен Лиллей / Ian Lilley) [2015, Документальный, игровой, биографический, история, HDTVRip (720p)]

 
 Статистика раздачи 
Размер: 3.56 ГБ   |  Зарегистрирован: 02 дек 2016, 12:45   |   .torrent скачан: 1 раз
Сидеров: 1  [ 0 байт/сек ]     Личеров: 0  [ 0 байт/сек ]  
  

Американские принцессы на миллион долларов (2 сезон: 3 серии из 4) / Million Dollar American Princesses (Йен Лиллей / Ian Lilley) [2015, Документальный, игровой, биографический, история, HDTVRip (720p)]

Сообщение aLaVodka » 02 дек 2016, 12:45

Американские принцессы на миллион долларов (2 сезон: 3 серии из 4) / Million Dollar American Princesses

Дата/Год выпуска: 2015
Страна: Великобритания, Finestripe Productions
Жанр: Документальный, игровой, биографический, история
Продолжительность: 3 х ~ 00:46:00
Перевод: Студийный (одноголосый закадровый)
Режиссер: Йен Лиллей / Ian Lilley

Телеканал: Viasat History HD

Описание: Мы узнаем о жизни знаменитых и властных женщин, повлиявших на общество и сыгравших немаловажную роль в становлении современного мира. Начиная с 1890-х и до 1970-х, мы видим, как эти влиятельные женщины покидают свои поместья, в которых они были как птицы в золотых клетках, и вливаются в культурную и политическую жизнь Великобритании и Европы. В этой новой эпохе они стали не только гламурными объектами для обожания и зависти, но и освободились от оков, вынуждавших их быть послушными и прилежными дочерьми, матерями, жёнами. По примеру Грейс Келли, оставившей свою карьеру ради свадьбы с принцем Монако Ренье или Пегги Гуггенхайм, известной своими многочисленными любовниками и покровительством людей искусства. Преодолев все личностные и культурные преграды, все эти женщины стали сильнее.

Доп. информация: Релиз от: alf62
Большое спасибо ПЕЧАЛЬ, за предоставленный постер!!



imdb: http://www.imdb.com/title/tt4577556/

качество: HDTVRip (720p)
формат: MKV
Видео: MPEG-4 AVC, ~ 3500 Кбит/с, 1280x720
Аудио: 48 kHz, AC3 Dolby Digital, 2/0 (L,R) ch, ~192.00 kbps avg
1. Королевы экрана / Queens of the Screen
Актёрское мастерство некоторых женщин сделало их звёздами «голубого экрана». Но были ли эти принцессы экрана счастливы, став жёнами аристократов и монархов?

2. Королевы культуры / Queens of Culture
Как прогрессивные взгляды и сексуальные аппетиты американских наследниц сделали их покровительницами самых выдающихся и необычных людей искусства?

3. Красивые и обречённые / Beautiful and the Doomed
В начале XX века появился новый вид наследниц, которые не хотели, чтобы им навязывали, как жить. Тем не менее, за многих из них до сих пор решал их муж.

4. Женщины-лидеры / Leading Ladies
Мы узнаем о политической и экономической революции, созданной богатыми женщинами, которые завладели контролем над своим имуществом и больше не желали подчиняться своим мужьям.
Код: Выделить всё
Американские.принцессы.на.миллион.долларов.(S2.Ep1).Королевы.экрана.2015.HDTVRip.720p.x264.alf62.mkv
Формат                                   : Matroska
Версия формата                           : Version 2
Размер файла                             : 1,19 Гбайт
Продолжительность                        : 45 м.
Общий поток                              : 3693 Кбит/сек
Дата кодирования                         : UTC 2016-11-19 16:05:46
Программа кодирования                    : mkvmerge v7.8.0 ('River Man') 32bit built on Apr  3 2015 12:11:22
Библиотека кодирования                   : libebml v1.3.1 + libmatroska v1.4.2

Видео
Идентификатор                            : 1
Формат                                   : AVC
Формат/Информация                        : Advanced Video Codec
Профиль формата                          : [email protected]
Параметр CABAC формата                   : Да
Параметр ReFrames формата                : 9 кадров
Идентификатор кодека                     : V_MPEG4/ISO/AVC
Продолжительность                        : 45 м.
Битрейт                                  : 3500 Кбит/сек
Ширина                                   : 1280 пикселей
Высота                                   : 720 пикселей
Соотношение сторон                       : 16:9
Режим частоты кадров                     : Постоянный
Частота кадров                           : 25,000 кадров/сек
Цветовое пространство                    : YUV
Субдискретизация насыщенности            : 4:2:0
Битовая глубина                          : 8 бит
Тип развёртки                            : Прогрессивная
Бит/(Пиксели*Кадры)                      : 0.152
Размер потока                            : 1,10 Гбайт (93%)
Библиотека кодирования                   : x264 core 146 r2538 121396c
Настройки программы                      : cabac=1 / ref=9 / deblock=1:-2:-2 / analyse=0x3:0x113 / me=umh / subme=10 / psy=1 / psy_rd=1.00:0.00 / mixed_ref=1 / me_range=32 / chroma_me=1 / trellis=2 / 8x8dct=1 / cqm=0 / deadzone=21,11 / fast_pskip=0 / chroma_qp_offset=-2 / threads=6 / lookahead_threads=1 / sliced_threads=0 / nr=0 / decimate=0 / interlaced=0 / bluray_compat=0 / constrained_intra=0 / bframes=9 / b_pyramid=2 / b_adapt=2 / b_bias=0 / direct=3 / weightb=1 / open_gop=0 / weightp=2 / keyint=250 / keyint_min=25 / scenecut=40 / intra_refresh=0 / rc_lookahead=40 / rc=2pass / mbtree=0 / bitrate=3500 / ratetol=1.0 / qcomp=0.60 / qpmin=10 / qpmax=51 / qpstep=4 / cplxblur=20.0 / qblur=0.5 / vbv_maxrate=14000 / vbv_bufsize=14000 / nal_hrd=none / filler=0 / ip_ratio=1.40 / pb_ratio=1.30 / aq=1:0.80
Default                                  : Да
Forced                                   : Нет

Аудио
Идентификатор                            : 2
Формат                                   : AC-3
Формат/Информация                        : Audio Coding 3
Расширение режима                        : CM (complete main)
Параметр Endianness формата              : Big
Идентификатор кодека                     : A_AC3
Продолжительность                        : 45 м.
Вид битрейта                             : Постоянный
Битрейт                                  : 192 Кбит/сек
Каналы                                   : 2 канала
Расположение каналов                     : Front: L R
Частота                                  : 48,0 КГц
Битовая глубина                          : 16 бит
Метод сжатия                             : С потерями
Размер потока                            : 63,2 Мбайт (5%)
Default                                  : Да
Forced                                   : Нет
Внимание! Раздача ведётся путём добавления новых серий
Внимание! Раздача ведётся путём добавления новых серий; при каждом добавлении создаётся новый торрент. Чтобы начать докачку новой серии, пользователям необходимо сделать следующее:
• Остановить скачивание.
• Удалить старый торрент у себя из клиента (старые серии удалять не надо).
• Скачать новый торрент и запустить его у себя в клиенте вместо старого, при этом указать клиенту путь в старую папку куда и должно происходить скачивание новых серий.
Ваш клиент при этом должен произвести хеширование (проверку) старой папки (если не производит сам - помогите ему сделать это), и будет докачивать только те серии которых у вас ещё нет. Старые серии при этом не удаляются, а продолжают раздаваться!
Eсли вы уже удалили старые серии, то предотвратить повторную закачку старых серий можно, отжав галочку в соответсвующих местах при запуске нового торрента. По возможности, желательно не удалять старые серии как можно дольше чтобы релизёр не столько продолжал раздавать старые серии, а смог сконцентрироваться на новых.




 
Не забывайте говорить Спасибо. Не уходите с раздачи!   
Торрент: Зарегистрирован [02 дек 2016, 12:45] Для скачивания .torrent
необходима регистрация
Или скачать с помощью
MediaGet
Статус:
Проверен
 
.torrent скачан: 1 раз
Хэш: 8a698e3f2bc832fd1c9d64e227965844f21b26e2
Размер: 3.56 ГБ (3 821 796 720 байт)
Стать Автором раздачи
 
 
Раздал: 100 ГБ
Скачал: 0 байт
Ратио: Seed.
Сообщения: 173651
Зарегистрирован: 09 апр 2015, 20:00


  • Похожие торренты
    Ответы
    Просмотры
    Последнее сообщение

Вернуться в Биографии. Личности и кумиры (HD Video)

Кто сейчас на конференции

Сейчас эту тему просматривают: нет зарегистрированных пользователей и гости: 1

Ресурс не предоставляет электронные версии произведений, а занимается лишь коллекционированием и каталогизацией ссылок, присылаемых и публикуемых на форуме нашими читателями. Если вы являетесь правообладателем какого-либо представленного материала и не желаете чтобы ссылка на него находилась в нашем каталоге, свяжитесь с нами и мы незамедлительно удалим её. Файлы для обмена на трекере предоставлены пользователями сайта, и администрация не несёт ответственности за их содержание. Просьба не заливать файлы, защищенные авторскими правами, а также файлы нелегального содержания!