Вне времени / Timeless (2016) WEB-DL [H.264] (сезон 1, серии 1-8 из 13) LostFilm [MP4|1280x720]

 
 Статистика раздачи 
Размер: 10.37 ГБ   |  Зарегистрирован: 02 дек 2016, 09:21   |   .torrent скачан: 0 раз
Сидеров: 1  [ 0 байт/сек ]     Личеров: 0  [ 0 байт/сек ]  
  

Вне времени / Timeless (2016) WEB-DL [H.264] (сезон 1, серии 1-8 из 13) LostFilm [MP4|1280x720]

Сообщение explosiveone » 02 дек 2016, 09:21

Вне времени / Timeless (2016) WEB-DL 720p (сезон 1, серии 1-8 из 13) LostFilm

«Protect the Past. Save the Future»
Производство: США / MiddKid Productions, Kripke Enterprises, Davis Entertainment
Жанр: фантастика, боевик, драма, приключения

Режиссер: Чарльз Бисон, Нил Маршалл, Джон Терлески
Актеры: Чад Рук, Эбигейл Спенсер, Мэтт Лантер, Горан Вишнич, Малкольм Баррет, Пэтерсон Джозеф, Сакина Джэффри, Клаудия Дурмит, Мэтт Фрюэр, Гектор Хьюго и др.

Описание:
Таинственный преступник крадет секретную машину времени, намереваясь с ее помощью уничтожить Америку, изменив прошлое. На защиту страны встает необычная команда: профессор истории, солдат и ученый. Герои сериала «Вне времени» отправляются на прототипе украденной машины в путешествие во времени, останавливаясь в наиболее критических моментах для страны. Они должны приложить все усилия, чтобы самим не повлиять на ход истории, а также оставаться на шаг впереди опасного злоумышленника. Удастся ли им предотвратить надвигающуюся катастрофу?


Дата мировой премьеры: 3 октября 2016

Продолжительность: ~00:45:00 серия
Качество видео: WEB-DL
Перевод: Многоголосый закадровый, профессиональный - LostFilm
Реклама: присутствует заставка и логотип LostFilm

Видео: AVC/H.264 (High@L4.1), 1280x720/1280x718 (16:9), ~4000 Кбит/сек
Аудио: AAC, 2 канала, 265 Кбит/сек - русский (многоголосый закадровый)
Код:
Полное имя                               : M:\Timeless_s1_WEB-DL720p_x264_LostFilm_[NNMClub]\Timeless.S01E01.720p.WEB.rus.LostFilm.TV.mp4
Формат                                   : MPEG-4
Профиль формата                          : Base Media
Идентификатор кодека                     : isom (isom)
Размер файла                             : 1,35 Гбайт
Продолжительность                        : 45 м.
Режим общего битрейта                    : Переменный
Общий поток                              : 4272 Кбит/сек
Коллекция                                : Вне времени
Сезон                                    : 1
Альбом                                   : Вне времени, Сезон 1
Альбом/Исполнитель                       : Вне времени
Часть                                    : 1
Часть/Положение                          : 1
Трек                                     : Пилот
Трек/Положение                           : 1
Исполнитель                              : Вне Времени
Жанр                                     : Sci-Fi & Fantasy
Тип содержимого                          : TV Show
Дата записи                              : 2016
Дата кодирования                         : UTC 2016-10-06 20:28:39
Дата пометки                             : UTC 2016-10-06 20:28:39
Программа кодирования                    : LostCoder
Авторское право                          : LostFilm.TV(c)
Обложка                                  : Yes
Примечание                               : Когда бывший сотрудник АНБ, а ныне разыскиваемый властями преступник Гарсиа Флинн крадет машину времени, правительство идет на крайние меры, дабы помешать ему реализовать свой план по изменению истории.
Part_ID                                  : 101

Видео
Идентификатор                            : 1
Формат                                   : AVC
Формат/Информация                        : Advanced Video Codec
Профиль формата                          :
Параметр CABAC формата                   : Да
Параметр ReFrames формата                : 4 кадра
Идентификатор кодека                     : avc1
Идентификатор кодека/Информация          : Advanced Video Coding
Продолжительность                        : 45 м.
Битрейт                                  : 4000 Кбит/сек
Максимальный битрейт                     : 19,3 Мбит/сек
Ширина                                   : 1280 пикселей
Высота                                   : 720 пикселей
Соотношение сторон                       : 16:9
Режим частоты кадров                     : Постоянный
Частота кадров                           : 23,976 (24000/1001) кадра/сек
Частота кадров в оригинале               : 23,976 (23976/1000) кадра/сек
Цветовое пространство                    : YUV
Субдискретизация насыщенности            : 4:2:0
Битовая глубина                          : 8 бит
Тип развёртки                            : Прогрессивная
Бит/(Пиксели*Кадры)                      : 0.181
Размер потока                            : 1,26 Гбайт (94%)
Заголовок                                : Imported with GPAC 0.4.6-DEV (internal rev. 5)
Библиотека кодирования                   : x264 core 112 r1834 a51816a
Настройки программы                      : cabac=1 / ref=4 / deblock=1:-3:-2 / analyse=0x3:0x113 / me=hex / subme=7 / psy=1 / psy_rd=1.00:0.00 / mixed_ref=1 / me_range=16 / chroma_me=1 / trellis=1 / 8x8dct=1 / cqm=0 / deadzone=21,11 / fast_pskip=1 / chroma_qp_offset=-2 / threads=12 / sliced_threads=0 / nr=0 / decimate=1 / interlaced=0 / constrained_intra=0 / bframes=5 / b_pyramid=2 / b_adapt=1 / b_bias=0 / direct=1 / weightb=1 / open_gop=0 / weightp=2 / keyint=250 / keyint_min=25 / scenecut=40 / intra_refresh=0 / rc_lookahead=40 / rc=2pass / mbtree=1 / bitrate=4000 / ratetol=1.0 / qcomp=0.60 / qpmin=0 / qpmax=51 / qpstep=4 / cplxblur=20.0 / qblur=0.5 / vbv_maxrate=10000 / vbv_bufsize=256000 / ip_ratio=1.40 / aq=1:1.00 / nal_hrd=none
Дата кодирования                         : UTC 2016-10-05 13:32:17
Дата пометки                             : UTC 2016-10-06 20:32:13

Аудио
Идентификатор                            : 2
Формат                                   : AAC
Формат/Информация                        : Advanced Audio Codec
Профиль формата                          : LC
Идентификатор кодека                     : 40
Продолжительность                        : 45 м.
Вид битрейта                             : Переменный
Битрейт                                  : 265 Кбит/сек
Максимальный битрейт                     : 331 Кбит/сек
Каналы                                   : 2 канала
Расположение каналов                     : Front: L R
Частота                                  : 48,0 КГц
Частота кадров                           : 46,875 кадров/сек (1024 spf)
Метод сжатия                             : С потерями
Размер потока                            : 86,8 Мбайт (6%)
Дата кодирования                         : UTC 2016-10-06 20:31:53
Дата пометки                             : UTC 2016-10-06 20:32:13

01 - Пилот / Pilot
02 - Убийство Авраама Линкольна / The Assassination of Abraham Lincoln
03 - Атомный город / Atomic City
04 - Приём в замке Варлар / Party at Castle Varlar
05 - Аламо / The Alamo
06 - Уотергейтские записи / The Watergate Tape
07 - В ловушке / Stranded
08 - Космическая гонка / Space Race
Внимание! Раздача ведётся путём добавления новых серий; при каждом добавлении создаётся новый торрент.
Чтобы начать докачку новой серии, пользователям необходимо сделать следующее:
1. Остановить скачивание;
2. Удалить старый торрент у себя из клиента (старые серии удалять не надо);
3. Скачать новый торрент и запустить его у себя в клиенте вместо старого, при этом указать клиенту путь в старую папку куда и должно происходить скачивание новых серий. Ваш клиент при этом должен произвести хеширование (проверку) старой папки и будет докачивать только те серии, которых у вас ещё нет. Старые серии при этом не удаляются, а продолжают раздаваться! Eсли вы уже удалили старые серии, то предотвратить повторную закачку старых серий можно, отжав галочку в соответствующих местах при запуске нового торрента.
Скриншоты:




Время раздачи: 24/7 (круглосуточно) (до появления первых 3-5 скачавших)
 
Не забывайте говорить Спасибо. Не уходите с раздачи!   
Торрент: Зарегистрирован [02 дек 2016, 09:21] Для скачивания .torrent
необходима регистрация
Или скачать с помощью
MediaGet
Статус:
Проверен
 
.torrent скачан: 0 раз
Хэш: e43b2a9d68f5a227352155d81a778f4b89b05ee1
Размер: 10.37 ГБ (11 139 220 195 байт)
Стать Автором раздачи
 
 
Раздал: 100 ГБ
Скачал: 0 байт
Ратио: Seed.
Сообщения: 94065
Зарегистрирован: 09 апр 2015, 22:31


  • Похожие торренты
    Ответы
    Просмотры
    Последнее сообщение

Вернуться в Видео для мобильных устройств

Ресурс не предоставляет электронные версии произведений, а занимается лишь коллекционированием и каталогизацией ссылок, присылаемых и публикуемых на форуме нашими читателями. Если вы являетесь правообладателем какого-либо представленного материала и не желаете чтобы ссылка на него находилась в нашем каталоге, свяжитесь с нами и мы незамедлительно удалим её. Файлы для обмена на трекере предоставлены пользователями сайта, и администрация не несёт ответственности за их содержание. Просьба не заливать файлы, защищенные авторскими правами, а также файлы нелегального содержания!
cron