Викинги / Vikings (2016) WEB-DLRip / HDTVRip [H.264] (сезон 4, серии 1-11 из 20) AlexFilm [MP4|1280x718]

 
 Статистика раздачи 
Размер: 13.95 ГБ   |  Зарегистрирован: 02 дек 2016, 00:55   |   .torrent скачан: 0 раз
Сидеров: 1  [ 0 байт/сек ]     Личеров: 0  [ 0 байт/сек ]  
  

Викинги / Vikings (2016) WEB-DLRip / HDTVRip [H.264] (сезон 4, серии 1-11 из 20) AlexFilm [MP4|1280x718]

Сообщение explosiveone » 02 дек 2016, 00:55

Викинги / Vikings (2016) WEB-DLRip / HDTVRip 720p (сезон 4, серии 1-11 из 20) AlexFilm

«The Storm Is Coming»
Производство: Ирландия, Канада
Жанр: Боевик, драма, военный, история

Режиссер: Йохан Ренк, Киаран Доннелли, Кен Джиротти , Джефф Вулнаф
Актеры: Трэвис Фиммел, Клайв Стэнден, Кэтрин Уинник, Гэбриел Бирн, Джессалин Гилсиг, Густаф Скарсгард, Джордж Благден, Тадж Мерфи, Диармэйд Мурта, Дэвид Пирс и др.

Описание:
Молодой фермер Рагнар Лодброк (Трэвис Фиммел), мечтающий о походе на Запад, выступает против воли местного правителя викингов, предпочитающего безопасные набеги на бедные соседние земли. Заручившись поддержкой своей семьи, герой принимает решение ослушаться приказа, тем самым разделив своих сородичей на два противоборствующих лагеря. С помощью искусного мастера Рагнар берется за строительство быстроходного корабля. С отрядом преданных бойцов викинг готов совершить нападение на сулящие несметные богатства земли англосаксов. Его легендарное путешествие в Британию будет воспето в мифах и преданиях…



Продолжительность: ~ 00:45:00 серия
Качество видео: WEB-DLRip / HDTVRip
Перевод: Многоголосый закадровый, профессиональный - AlexFilm
Озвучка / Автор перевода: Евгения Тихонова, Михаил Суслов, Владимир Курдов, Роман Сопко, Александр Дасевич / Константин Кривоногов
Реклама: присутствуют голосовые вставки

Видео: AVC/H.264 (High@L3.1), 1280x718 (16:9), ~3994 Кбит/сек
Аудио: AAC, 2 канала, 192 Кбит/сек - русский (многоголосый закадровый)
Код:
Полное имя                               : E:\Vikings_s4_WEB-DL720p_x264_AlexFilm_[NNM-CLUB]\Vikings.s04e01.WEB-DL.720p.Rus.AlexFilm.mp4
Формат                                   : MPEG-4
Профиль формата                          : Base Media
Идентификатор кодека                     : isom
Размер файла                             : 1,29 Гбайт
Продолжительность                        : 44 м.
Общий поток                              : 4192 Кбит/сек
Название фильма                          : Vikings 4x01 @ AlexFilm

Видео
Идентификатор                            : 1
Формат                                   : AVC
Формат/Информация                        : Advanced Video Codec
Профиль формата                          :
Параметр CABAC формата                   : Нет
Параметр ReFrames формата                : 2 кадра
Параметр GOP формата                     : M=2, N=90
Идентификатор кодека                     : avc1
Идентификатор кодека/Информация          : Advanced Video Coding
Продолжительность                        : 44 м.
Битрейт                                  : 3994 Кбит/сек
Ширина                                   : 1280 пикселей
Высота                                   : 718 пикселей
Соотношение сторон                       : 16:9
Режим частоты кадров                     : Переменный
Частота кадров                           : 23,976 кадра/сек
Минимальная частота кадров               : 23,810 кадра/сек
Максимальная частота кадров              : 24,390 кадра/сек
Цветовое пространство                    : YUV
Субдискретизация насыщенности            : 4:2:0
Битовая глубина                          : 8 бит
Тип развёртки                            : Прогрессивная
Бит/(Пиксели*Кадры)                      : 0.181
Размер потока                            : 1,23 Гбайт (95%)
Язык                                     : English
Основные цвета                           : BT.709
Характеристики трансфера                 : BT.709
Коэффициенты матрицы                     : BT.709

Аудио
Идентификатор                            : 2
Формат                                   : AAC
Формат/Информация                        : Advanced Audio Codec
Профиль формата                          : LC
Идентификатор кодека                     : 40
Продолжительность                        : 44 м.
Вид битрейта                             : Постоянный
Битрейт                                  : 192 Кбит/сек
Каналы                                   : 2 канала
Расположение каналов                     : Front: L R
Частота                                  : 48,0 КГц
Метод сжатия                             : С потерями
Размер потока                            : 60,7 Мбайт (5%)
Заголовок                                : AlexFilm
Язык                                     : Russian
Код:
Полное имя                               : E:\Vikings_s4_WEB-DL720p_x264_AlexFilm_[NNM-CLUB]\Vikings.s04e11.HDTV.720p.Rus.AlexFilm.mp4
Формат                                   : MPEG-4
Профиль формата                          : Base Media
Идентификатор кодека                     : isom (isom/iso2/avc1/mp41)
Размер файла                             : 992 Мбайт
Продолжительность                        : 44 м.
Общий поток                              : 3149 Кбит/сек
Программа кодирования                    : XviD4PSP 7.0.129

Видео
Идентификатор                            : 1
Формат                                   : AVC
Формат/Информация                        : Advanced Video Codec
Профиль формата                          :
Параметр CABAC формата                   : Да
Параметр ReFrames формата                : 5 кадров
Идентификатор кодека                     : avc1
Идентификатор кодека/Информация          : Advanced Video Coding
Продолжительность                        : 44 м.
Duration_LastFrame                       : -1 мс.
Битрейт                                  : 2952 Кбит/сек
Ширина                                   : 1280 пикселей
Высота                                   : 720 пикселей
Соотношение сторон                       : 16:9
Режим частоты кадров                     : Постоянный
Частота кадров                           : 23,976 (24000/1001) кадра/сек
Цветовое пространство                    : YUV
Субдискретизация насыщенности            : 4:2:0
Битовая глубина                          : 8 бит
Тип развёртки                            : Прогрессивная
Бит/(Пиксели*Кадры)                      : 0.134
Размер потока                            : 930 Мбайт (94%)
Библиотека кодирования                   : x264 core 148 r2721 72d53ab
Настройки программы                      : cabac=1 / ref=5 / deblock=1:0:0 / analyse=0x3:0x113 / me=hex / subme=8 / psy=1 / psy_rd=1.00:0.00 / mixed_ref=1 / me_range=16 / chroma_me=1 / trellis=2 / 8x8dct=1 / cqm=0 / deadzone=21,11 / fast_pskip=1 / chroma_qp_offset=-2 / threads=22 / lookahead_threads=3 / sliced_threads=0 / nr=0 / decimate=1 / interlaced=0 / bluray_compat=0 / constrained_intra=0 / bframes=3 / b_pyramid=2 / b_adapt=1 / b_bias=0 / direct=3 / weightb=1 / open_gop=0 / weightp=2 / keyint=250 / keyint_min=23 / scenecut=40 / intra_refresh=0 / rc_lookahead=50 / rc=crf / mbtree=1 / crf=18.0 / qcomp=0.60 / qpmin=0 / qpmax=69 / qpstep=4 / ip_ratio=1.40 / aq=1:1.00
Цветовой диапазон                        : Limited
Коэффициенты матрицы                     : BT.709

Аудио
Идентификатор                            : 2
Формат                                   : AAC
Формат/Информация                        : Advanced Audio Codec
Профиль формата                          : LC
Идентификатор кодека                     : 40
Продолжительность                        : 44 м.
Вид битрейта                             : Постоянный
Битрейт                                  : 192 Кбит/сек
Каналы                                   : 2 канала
Расположение каналов                     : Front: L R
Частота                                  : 48,0 КГц
Частота кадров                           : 46,875 кадров/сек (1024 spf)
Метод сжатия                             : С потерями
Размер потока                            : 60,5 Мбайт (6%)
Заголовок                                : AlexFilm / AlexFilm
Язык                                     : Russian
Default                                  : Да

01. A Good Treason / Хорошее предательство
02. Kill the Queen / Убейте королеву!
03. Mercy / Милосердие
04. Yol / Йоль
05. Promised / Обещанное
06. What Might Have Been / Что могло случиться
07. The Profit and the Loss / Нажива и убытки
08. Portage / Сухопутный переход
09. Death All 'Round / Смерть повсюду
10. The Last Ship / Последний корабль
11. The Outsider / Чужак
Внимание! Раздача ведётся путём добавления новых серий; при каждом добавлении создаётся новый торрент.
Чтобы начать докачку новой серии, пользователям необходимо сделать следующее:
1. Остановить скачивание;
2. Удалить старый торрент у себя из клиента (старые серии удалять не надо);
3. Скачать новый торрент и запустить его у себя в клиенте вместо старого, при этом указать клиенту путь в старую папку куда и должно происходить скачивание новых серий. Ваш клиент при этом должен произвести хеширование (проверку) старой папки и будет докачивать только те серии, которых у вас ещё нет. Старые серии при этом не удаляются, а продолжают раздаваться! Eсли вы уже удалили старые серии, то предотвратить повторную закачку старых серий можно, отжав галочку в соответствующих местах при запуске нового торрента.

Скриншоты:




Время раздачи: 24/7 (круглосуточно) (до появления первых 3-5 скачавших)
 
Не забывайте говорить Спасибо. Не уходите с раздачи!   
Торрент: Зарегистрирован [02 дек 2016, 00:55] Для скачивания .torrent
необходима регистрация
Или скачать с помощью
MediaGet
Статус:
Проверен
 
.torrent скачан: 0 раз
Хэш: 008e3eaa31e83b5413a9ce15a5cfb7fb7216d84f
Размер: 13.95 ГБ (14 977 390 955 байт)
Стать Автором раздачи
 
 
Раздал: 100 ГБ
Скачал: 0 байт
Ратио: Seed.
Сообщения: 94048
Зарегистрирован: 09 апр 2015, 22:31


  • Похожие торренты
    Ответы
    Просмотры
    Последнее сообщение

Вернуться в Видео для мобильных устройств

Ресурс не предоставляет электронные версии произведений, а занимается лишь коллекционированием и каталогизацией ссылок, присылаемых и публикуемых на форуме нашими читателями. Если вы являетесь правообладателем какого-либо представленного материала и не желаете чтобы ссылка на него находилась в нашем каталоге, свяжитесь с нами и мы незамедлительно удалим её. Файлы для обмена на трекере предоставлены пользователями сайта, и администрация не несёт ответственности за их содержание. Просьба не заливать файлы, защищенные авторскими правами, а также файлы нелегального содержания!
cron