Люди / Humans (2016) HDTVRip / WEB-DLRip [H.264] (сезон 2, серии 1-5 из 8) LostFilm [MP4|1280x720]

 
 Статистика раздачи 
Размер: 7 ГБ   |  Зарегистрирован: 01 дек 2016, 10:51   |   .torrent скачан: 0 раз
Сидеров: 1  [ 0 байт/сек ]     Личеров: 0  [ 0 байт/сек ]  
  

Люди / Humans (2016) HDTVRip / WEB-DLRip [H.264] (сезон 2, серии 1-5 из 8) LostFilm [MP4|1280x720]

Сообщение explosiveone » 01 дек 2016, 10:51

Люди / Humans (2016) HDTVRip / WEB-DLRip (сезон 2, серии 1-5 из 8) LostFilm
«Made in our image. Out of our control»

Производство: Великобритания, США, Швеция / Kudos Film and Television, Channel 4, AMC Studios
Жанр: Фантастика, Драма

Режиссер: Льюис Арнольд, Сэмюэл Донован, Чина Му-Ен
Актеры: Джемма Чан, Том Гудман-Хилл, Кэтрин Паркинсон, Люси Карлесс, Колин Морган, Эмили Беррингтон, Нил Мэскелл, Рут Брэдли, Иванно Джеремайя, Дэниэл Уэбб и др.

Описание:
Действие сериала развернется в параллельном мире, где чрезвычайную популярность приобрели новые гаджеты — высокотехнологичные роботы-слуги, которые внешне пугающе похожи на людей. Одного такого «помощника по хозяйству» приобретает живущая в пригороде семья. Вскоре они осознают, что совместная с машиной жизнь повлечет за собой жуткие последствия.



Продолжительность: ~00:46:00 серия
Качество видео: HDTVRip / WEB-DLRip 720p
Перевод: Многоголосый закадровый, профессиональный - LostFilm
Реклама: Присутствует заставка и логотип LostFilm

Видео: AVC/H.264 (High@L4.1), 1280x720 (16:9), ~4000 Кбит/сек
Аудио: AAC, 2 канала, 254 Кбит/сек - русский (многоголосый закадровый)
Код: General
Complete name               : D:\Humans.S02E04.720p.WEB.rus.LostFilm.TV.mp4
Format                      : MPEG-4
Format profile              : Base Media
Codec ID                    : isom (isom)
File size                   : 1.42 GiB
Duration                    : 47 min 42 s
Overall bit rate mode       : Variable
Overall bit rate            : 4 258 kb/s
Collection                  : Люди
Season                      : 2
Album                       : Люди, Сезон 2
Album/Performer             : Люди
Part                        : 4
Part/Position               : 2
Track name                  : Эпизод 4
Track name/Position         : 4
Performer                   : Люди
Genre                       : Sci-Fi & Fantasy
ContentType                 : TV Show
Recorded date               : 2016
Encoded date                : UTC 2016-11-22 20:29:39
Tagged date                 : UTC 2016-11-22 20:29:39
Writing application         : Yamb 2.1.0.0 [http:/yamb.unite-video.com] / LostCoder
Copyright                   : LostFilm.TV (c)
Cover                       : Yes
Comment                     : Научный прогресс в мире недалекого будущего совершил грандиозный скачок. Теперь наравне с такими полезными девайсами, как утюг или телефон, люди стали использовать в повседневной жизни человекоподобных роботов, легко справляющихся и с приготовлением еды,
Part_ID                     : 204

Video
ID                          : 1
Format                      : AVC
Format/Info                 : Advanced Video Codec
Format profile              :
Format settings, CABAC      : Yes
Format settings, ReFrames   : 4 frames
Codec ID                    : avc1
Codec ID/Info               : Advanced Video Coding
Duration                    : 47 min 42 s
Bit rate                    : 4 000 kb/s
Maximum bit rate            : 19.5 Mb/s
Width                       : 1 280 pixels
Height                      : 720 pixels
Display aspect ratio        : 16:9
Frame rate mode             : Constant
Frame rate                  : 25.000 FPS
Color space                 : YUV
Chroma subsampling          : 4:2:0
Bit depth                   : 8 bits
Scan type                   : Progressive
Bits/(Pixel*Frame)          : 0.174
Stream size                 : 1.33 GiB (94%)
Title                       : Imported with GPAC 0.4.6-DEV (internal rev. 5)
Writing library             : x264 core 112 r1834 a51816a
Encoding settings           : cabac=1 / ref=4 / deblock=1:-3:-2 / analyse=0x3:0x113 / me=hex / subme=7 / psy=1 / psy_rd=1.00:0.00 / mixed_ref=1 / me_range=16 / chroma_me=1 / trellis=1 / 8x8dct=1 / cqm=0 / deadzone=21,11 / fast_pskip=1 / chroma_qp_offset=-2 / threads=12 / sliced_threads=0 / nr=0 / decimate=1 / interlaced=0 / constrained_intra=0 / bframes=5 / b_pyramid=2 / b_adapt=1 / b_bias=0 / direct=1 / weightb=1 / open_gop=0 / weightp=2 / keyint=250 / keyint_min=25 / scenecut=40 / intra_refresh=0 / rc_lookahead=40 / rc=2pass / mbtree=1 / bitrate=4000 / ratetol=1.0 / qcomp=0.60 / qpmin=0 / qpmax=51 / qpstep=4 / cplxblur=20.0 / qblur=0.5 / vbv_maxrate=10000 / vbv_bufsize=256000 / ip_ratio=1.40 / aq=1:1.00 / nal_hrd=none
Encoded date                : UTC 2016-11-22 00:09:41
Tagged date                 : UTC 2016-11-22 20:30:20

Audio
ID                          : 2
Format                      : AAC
Format/Info                 : Advanced Audio Codec
Format profile              : LC
Codec ID                    : 40
Duration                    : 47 min 42 s
Bit rate mode               : Variable
Bit rate                    : 254 kb/s
Maximum bit rate            : 299 kb/s
Channel(s)                  : 2 channels
Channel positions           : Front: L R
Sampling rate               : 48.0 kHz
Frame rate                  : 46.875 FPS (1024 spf)
Compression mode            : Lossy
Stream size                 : 86.7 MiB (6%)
Encoded date                : UTC 2016-11-22 20:30:18
Tagged date                 : UTC 2016-11-22 20:30:20
Внимание! Раздача ведётся путём добавления новых серий; при каждом добавлении создаётся новый торрент.
Чтобы начать докачку новой серии, пользователям необходимо сделать следующее:
1. Остановить скачивание;
2. Удалить старый торрент у себя из клиента (старые серии удалять не надо);
3. Скачать новый торрент и запустить его у себя в клиенте вместо старого, при этом указать клиенту путь в старую папку куда и должно происходить скачивание новых серий. Ваш клиент при этом должен произвести хеширование (проверку) старой папки и будет докачивать только те серии, которых у вас ещё нет. Старые серии при этом не удаляются, а продолжают раздаваться! Eсли вы уже удалили старые серии, то предотвратить повторную закачку старых серий можно, отжав галочку в соответствующих местах при запуске нового торрента.

Скриншоты:




Время раздачи: 24/7 до первых 10-и скачавших
 
Не забывайте говорить Спасибо. Не уходите с раздачи!   
Торрент: Зарегистрирован [01 дек 2016, 10:51] Для скачивания .torrent
необходима регистрация
Или скачать с помощью
MediaGet
Статус:
Проверен
 
.torrent скачан: 0 раз
Хэш: 0f855a9a16e830584e61f0fac083d4f9c515a150
Размер: 7 ГБ (7 516 244 489 байт)
Стать Автором раздачи
 
 
Раздал: 100 ГБ
Скачал: 0 байт
Ратио: Seed.
Сообщения: 94032
Зарегистрирован: 09 апр 2015, 22:31


  • Похожие торренты
    Ответы
    Просмотры
    Последнее сообщение

Вернуться в Видео для мобильных устройств

Ресурс не предоставляет электронные версии произведений, а занимается лишь коллекционированием и каталогизацией ссылок, присылаемых и публикуемых на форуме нашими читателями. Если вы являетесь правообладателем какого-либо представленного материала и не желаете чтобы ссылка на него находилась в нашем каталоге, свяжитесь с нами и мы незамедлительно удалим её. Файлы для обмена на трекере предоставлены пользователями сайта, и администрация не несёт ответственности за их содержание. Просьба не заливать файлы, защищенные авторскими правами, а также файлы нелегального содержания!
cron