Nat Geo Wild: Хоаниб - секреты слонов пустыни / Secrets of The Desert Elephants (2013) HDTV (H.264/1080i)

 
 Статистика раздачи 
Размер: 3.06 ГБ   |  Зарегистрирован: 01 дек 2016, 06:11   |   .torrent скачан: 0 раз
Сидеров: 1  [ 0 байт/сек ]     Личеров: 0  [ 0 байт/сек ]  
  

Nat Geo Wild: Хоаниб - секреты слонов пустыни / Secrets of The Desert Elephants (2013) HDTV (H.264/1080i)

Сообщение explosiveone » 01 дек 2016, 06:11

Nat Geo Wild: Хоаниб - секреты пустынных слонов / Secrets of The Desert Elephants (2013) HDTV (1080i)

Телекомпания: Германия, Blue Planet Film
Жанр: Документальный, природа, фауна

Описание:
Намиб - одна из наиболее суровых пустынь на планете, но некоторые животные, например, слоны, научились там выживать.

Продолжительность: 00:43:59
Качество видео: HDTV (1080i)
Перевод: Профессиональный (дублированный)

Видео: AVC/H.264, 1920x1080i, ~9088 kbps
Аудио: 1 (Rus): MPEG2, 2 channels, 192 kbps
Аудио: 2 (Eng): MPEG2, 2 channels, 192 kbps
Код: Выделить всё
General
ID                                       : 1 (0x1)
Complete name                            : Secrets of The Desert Elephants.ts
Format                                   : MPEG-TS
File size                                : 3.06 GiB
Duration                                 : 43mn 59s
Overall bit rate mode                    : Variable
Overall bit rate                         : 9 968 Kbps

Video
ID                                       : 321 (0x141)
Menu ID                                  : 1 (0x1)
Format                                   : AVC
Format/Info                              : Advanced Video Codec
Format profile                           :
Format settings, CABAC                   : Yes
Format settings, ReFrames                : 4 frames
Codec ID                                 : 27
Duration                                 : 43mn 59s
Bit rate                                 : 9 088 Kbps
Width                                    : 1 920 pixels
Height                                   : 1 080 pixels
Display aspect ratio                     : 16:9
Frame rate                               : 25.000 fps
Standard                                 : Component
Color space                              : YUV
Chroma subsampling                       : 4:2:0
Bit depth                                : 8 bits
Scan type                                : Interlaced
Scan order                               : Top Field First
Bits/(Pixel*Frame)                       : 0.175
Stream size                              : 2.79 GiB (91%)
Color primaries                          : BT.709
Transfer characteristics                 : BT.709
Matrix coefficients                      : BT.709

Audio #1
ID                                       : 401 (0x191)
Menu ID                                  : 1 (0x1)
Format                                   : MPEG Audio
Format version                           : Version 1
Format profile                           : Layer 2
Codec ID                                 : 3
Duration                                 : 43mn 59s
Bit rate mode                            : Constant
Bit rate                                 : 192 Kbps
Channel(s)                               : 2 channels
Sampling rate                            : 48.0 KHz
Compression mode                         : Lossy
Stream size                              : 60.4 MiB (2%)
Language                                 : Russian

Audio #2
ID                                       : 451 (0x1C3)
Menu ID                                  : 1 (0x1)
Format                                   : MPEG Audio
Format version                           : Version 1
Format profile                           : Layer 2
Codec ID                                 : 3
Duration                                 : 43mn 59s
Bit rate mode                            : Constant
Bit rate                                 : 192 Kbps
Channel(s)                               : 2 channels
Sampling rate                            : 48.0 KHz
Compression mode                         : Lossy
Stream size                              : 60.4 MiB (2%)
Language                                 : English
IPTV Remux (запись потока без перекодирования)

Скриншоты:


Время раздачи: 24/7
 
Не забывайте говорить Спасибо. Не уходите с раздачи!   
Торрент: Зарегистрирован [01 дек 2016, 06:11] Для скачивания .torrent
необходима регистрация
Или скачать с помощью
MediaGet
Статус:
Проверен
 
.torrent скачан: 0 раз
Хэш: 0ed836028e2238bcc5e53868978e28f1d5365884
Размер: 3.06 ГБ (3 289 009 804 байт)
Стать Автором раздачи
 
 
Раздал: 100 ГБ
Скачал: 0 байт
Ратио: Seed.
Сообщения: 82670
Зарегистрирован: 09 апр 2015, 22:31


  • Похожие торренты
    Ответы
    Просмотры
    Последнее сообщение

Вернуться в Флора и фауна (видео)

Кто сейчас на конференции

Сейчас эту тему просматривают: нет зарегистрированных пользователей и гости: 1

Ресурс не предоставляет электронные версии произведений, а занимается лишь коллекционированием и каталогизацией ссылок, присылаемых и публикуемых на форуме нашими читателями. Если вы являетесь правообладателем какого-либо представленного материала и не желаете чтобы ссылка на него находилась в нашем каталоге, свяжитесь с нами и мы незамедлительно удалим её. Файлы для обмена на трекере предоставлены пользователями сайта, и администрация не несёт ответственности за их содержание. Просьба не заливать файлы, защищенные авторскими правами, а также файлы нелегального содержания!