Техногеника (2 сезон, 6 серий) (Эллина Кораблева, Дмитрий Щипров) [2016, Документальный, HDTV 1080i]

 
 Статистика раздачи 
Размер: 10.98 ГБ   |  Зарегистрирован: 29 ноя 2016, 20:33   |   .torrent скачан: 1 раз
Сидеров: 10  [ 0 байт/сек ]     Личеров: 4  [ 0 байт/сек ]  
  

Техногеника (2 сезон, 6 серий) (Эллина Кораблева, Дмитрий Щипров) [2016, Документальный, HDTV 1080i]

Сообщение aLaVodka » 29 ноя 2016, 20:33

Техногеника (2 сезон, 6 серий)

Год выпуска: 2016
Страна: Россия
Жанр: Документальный
Продолжительность: 6 х 44 минуты
Перевод: Не требуется
Режиссер: Эллина Кораблева, Дмитрий Щипров

Описание: Discovery Channel представляет проект российского производства о главных инженерных чудесах России! Новая программа «Техногеника» предлагает взглянуть на знаковые произведения технического искусства, созданные советскими и российскими конструкторами, инженерами, технологами, механиками, учеными. Съемки проекта проходили по всей России – от европейской части до Сибири и Крайнего Севера. Значение объектов, о которых пойдет рассказ, невозможно переоценить – каждый из них стал важным шагом в развитии науки и техники в мировом масштабе. «Главными героями» новых выпусков первый пассажирский сверхзвуковой Ту-144, Петербургский метрополитен, самый безопасный и самый мощный ядерный реактор ВВЭР-1200 и Центр подготовки космонавтов.

Список серий:
01. Техногеника. Ту-144. Первый пассажирский сверхзвуковой
02. Техногеника. Петербургский метрополитен
03. Техногеника. Реактор ВВЭР-1200. Самый мощный в мире
04. Техногеника. Центр подготовки космонавтов
05. Техногеника. Магнитогорский металлургический комбинат
06. Техногеника. Шагающий экскаватор

Доп. информация: IPTV Remux (запись потока без перекодирования)

Тип релиза: HDTV 1080i
Контейнер: MKV

Видео: AVC H.264, 1920x1080i (16:9), 25 fps, 5349 kbps , 0.103 bits/pixel
Аудио: AC3, 6 channels, 384 Kbps, 48KHz
Код: Выделить всё
General
Unique ID                                : 248374903082708267004816913413597315627 (0xBADB442E1481818D97197CB10828422B)
Complete name                            : 01. Техногеника. Ту-144. Первый пассажирский сверхзвуковой.mkv
Format                                   : Matroska
Format version                           : Version 2
File size                                : 1.79 GiB
Duration                                 : 43mn 54s
Overall bit rate                         : 5 849 Kbps
Encoded date                             : UTC 2016-11-29 16:59:39
Writing application                      : mkvmerge v7.7.0 ('Six Voices') 32bit built on Feb 28 2015 23:23:00
Writing library                          : libebml v1.3.1 + libmatroska v1.4.2

Video
ID                                       : 1
Format                                   : AVC
Format/Info                              : Advanced Video Codec
Format profile                           : High@L4.0
Format settings, CABAC                   : Yes
Format settings, ReFrames                : 4 frames
Codec ID                                 : V_MPEG4/ISO/AVC
Duration                                 : 43mn 54s
Bit rate                                 : 5 349 Kbps
Width                                    : 1 920 pixels
Height                                   : 1 080 pixels
Display aspect ratio                     : 16:9
Frame rate mode                          : Constant
Frame rate                               : 25.000 fps
Standard                                 : Component
Color space                              : YUV
Chroma subsampling                       : 4:2:0
Bit depth                                : 8 bits
Scan type                                : Interlaced
Scan order                               : Top Field First
Bits/(Pixel*Frame)                       : 0.103
Stream size                              : 1.64 GiB (91%)
Default                                  : Yes
Forced                                   : No
Color primaries                          : BT.709
Transfer characteristics                 : BT.709
Matrix coefficients                      : BT.709

Audio
ID                                       : 2
Format                                   : AC-3
Format/Info                              : Audio Coding 3
Mode extension                           : CM (complete main)
Format settings, Endianness              : Big
Codec ID                                 : A_AC3
Duration                                 : 43mn 54s
Bit rate mode                            : Constant
Bit rate                                 : 384 Kbps
Channel(s)                               : 6 channels
Channel positions                        : Front: L C R, Side: L R, LFE
Sampling rate                            : 48.0 KHz
Bit depth                                : 16 bits
Compression mode                         : Lossy
Stream size                              : 121 MiB (7%)
Language                                 : Russian
Default                                  : Yes
Forced                                   : No
 
Не забывайте говорить Спасибо. Не уходите с раздачи!   
Торрент: Зарегистрирован [29 ноя 2016, 20:33] Для скачивания .torrent
необходима регистрация
Или скачать с помощью
MediaGet
Статус:
Проверен
 
.torrent скачан: 1 раз
Хэш: c4629322859e8535f607b5400c49482b024b0696
Размер: 10.98 ГБ (11 786 092 956 байт)
Стать Автором раздачи
 
 
Раздал: 100 ГБ
Скачал: 0 байт
Ратио: Seed.
Сообщения: 189206
Зарегистрирован: 09 апр 2015, 20:00


  • Похожие торренты
    Ответы
    Просмотры
    Последнее сообщение

Вернуться в Естествознание, наука и техника (HD Video)

Ресурс не предоставляет электронные версии произведений, а занимается лишь коллекционированием и каталогизацией ссылок, присылаемых и публикуемых на форуме нашими читателями. Если вы являетесь правообладателем какого-либо представленного материала и не желаете чтобы ссылка на него находилась в нашем каталоге, свяжитесь с нами и мы незамедлительно удалим её. Файлы для обмена на трекере предоставлены пользователями сайта, и администрация не несёт ответственности за их содержание. Просьба не заливать файлы, защищенные авторскими правами, а также файлы нелегального содержания!
cron