Опасные каникулы (2016) WEB-DLRip [H.264] [MP4|1024x428]

 
 Статистика раздачи 
Размер: 1.14 ГБ   |  Зарегистрирован: 28 ноя 2016, 07:05   |   .torrent скачан: 0 раз
Сидеров: 1  [ 0 байт/сек ]     Личеров: 0  [ 0 байт/сек ]  
  

Опасные каникулы (2016) WEB-DLRip [H.264] [MP4|1024x428]

Сообщение explosiveone » 28 ноя 2016, 07:05

Опасные каникулы (2016) WEB-DLRip


Производство: Россия
Жанр: Приключения, Семейный, Комедия

Режиссер: Ольга Беляева
Актеры: Евдокия Колесникова, Эрих Чупин, Константин Крюков, Ирина Скобцева, Сергей Никоненко, Иван Колесников, Галина Польских, Нина Маслова

Описание:
Сережа — типичный городской мальчишка. Так же, как и его сверстники, он проводит свои летние каникулы, играя в компьютерные игры. Однажды он вместе с родителями приезжает на все лето в Крым. Здесь его ждут завораживающая природа, новые друзья, головокружительные приключения с далеко не детскими испытаниями и опасностями!


Возраст: 6+ (зрителям, достигшим 6 лет)

Релиз от: NNMClub
Продолжительность: 01:16:40
Качество видео: WEB-DLRip
Перевод: Оригинальный (iTunes)
Вид субтитров: Отсутствуют

Видео: AVC/H.264 (Main@L3.1), 1024x428 (2.40:1), 2000 Кбит/сек
Аудио #1: AC3, 2 канала, 192 Кбит/сек - русский
Код:
General
Complete name                            : C:\CREATE\264mod1\out\Opasnye.kanikuly.2016.576p.WEB-DLRip.AAC.h264.NNMclub.mp4
Format                                   : MPEG-4
Format profile                           : Base Media / Version 2
Codec ID                                 : mp42 (mp42/isom)
File size                                : 1.14 GiB
Duration                                 : 1 h 16 min
Overall bit rate mode                    : Variable
Overall bit rate                         : 2 133 kb/s
Movie name                               : Опасные каникулы
Performer                                : Ольга Беляева
Director                                 : Ольга Беляева
Actor                                    : Сергей Никоненко / Ирина Скобцева / Константин Крюков / Иван Колесников
Producer                                 : Станислав Говорухин / Екатерина Маскина
Genre                                    : Русское кино
ContentType                              : Short Film
Description                              : Сережа — типичный городской мальчишка. Так же, как и его сверстники, он проводит свои летние
Recorded date                            : 2016-10-27
Encoded date                             : UTC 2016-11-27 20:19:44
Tagged date                              : UTC 2016-11-27 20:23:06
Copyright                                : © 2016 Luxor
Cover                                    : Yes
LongDescription                          : Сережа — типичный городской мальчишка. Так же, как и его сверстники, он проводит свои летние каникулы, играя в компьютерные игры. Однажды он вместе с родителями приезжает на все лето в Крым. Здесь его ждут завораживающая природа, новые друзья, головокружительные приключения с далеко не детскими испытаниями и опасностями!
AppleStoreCountry                        : Unknown Country
AppleStoreCatalogID                      : 1175925071
ContentRating                            : ru-movie|6+|150|

Video
ID                                       : 1
Format                                   : AVC
Format/Info                              : Advanced Video Codec
Format profile                           :
Format settings, CABAC                   : Yes
Format settings, ReFrames                : 3 frames
Codec ID                                 : avc1
Codec ID/Info                            : Advanced Video Coding
Duration                                 : 1 h 16 min
Bit rate                                 : 2 000 kb/s
Width                                    : 1 024 pixels
Height                                   : 428 pixels
Display aspect ratio                     : 2.40:1
Frame rate mode                          : Constant
Frame rate                               : 25.000 FPS
Color space                              : YUV
Chroma subsampling                       : 4:2:0
Bit depth                                : 8 bits
Scan type                                : Progressive
Bits/(Pixel*Frame)                       : 0.183
Stream size                              : 1.07 GiB (94%)
Writing library                          : x264 core 148 r2721+55 e19946b t_mod_Custom [8-bit@all X86_64]
Encoding settings                        : cabac=1 / ref=3 / deblock=1:-3:-3 / analyse=0x1:0x111 / me=umh / subme=7 / psy=1 / fade_compensate=0.00 / psy_rd=1.00:0.20 / mixed_ref=1 / me_range=32 / chroma_me=1 / trellis=2 / 8x8dct=0 / cqm=0 / deadzone=21,11 / fast_pskip=0 / chroma_qp_offset=-3 / threads=12 / lookahead_threads=2 / sliced_threads=0 / nr=0 / decimate=0 / interlaced=0 / bluray_compat=0 / constrained_intra=0 / fgo=0 / bframes=3 / b_pyramid=1 / b_adapt=2 / b_bias=0 / direct=3 / weightb=1 / open_gop=0 / weightp=2 / keyint=250 / keyint_min=25 / scenecut=40 / intra_refresh=0 / rc_lookahead=50 / rc=2pass / mbtree=1 / bitrate=2000 / ratetol=1.0 / qcomp=0.60 / qpmin=0:0:0 / qpmax=69:69:69 / qpstep=4 / cplxblur=20.0 / qblur=0.5 / vbv_maxrate=10000 / vbv_bufsize=10000 / nal_hrd=none / filler=0 / ip_ratio=1.40 / aq=3:1.00 / aq-sensitivity=10.00 / aq-factor=1.00:1.00:1.00 / aq2=1:0.90 / aq2-sensitivity=15.00 / aq2-factor=1.00:1.00:1.00 / aq3=4:[0.50:0.50]:[0.50:0.50]:[0.50:0.50]:[0.50:0.50] / aq3-sensitivity=10.00 / aq3-factor=[1.00:1.00]:[1.00:1.00]:[1.00:1.00] / aq3-boundary=192:64:24
Encoded date                             : UTC 2016-11-27 20:19:44
Tagged date                              : UTC 2016-11-27 20:23:06
Color range                              : Limited
Color primaries                          : BT.709
Transfer characteristics                 : BT.709
Matrix coefficients                      : BT.709
Menus                                    : 3

Audio
ID                                       : 2
Format                                   : AAC
Format/Info                              : Advanced Audio Codec
Format profile                           : LC
Codec ID                                 : 40
Duration                                 : 1 h 16 min
Source duration                          : 1 h 16 min
Bit rate mode                            : Variable
Bit rate                                 : 128 kb/s
Maximum bit rate                         : 133 kb/s
Channel(s)                               : 2 channels
Channel positions                        : Front: L R
Sampling rate                            : 48.0 kHz
Frame rate                               : 46.875 FPS (1024 spf)
Compression mode                         : Lossy
Stream size                              : 70.2 MiB (6%)
Source stream size                       : 70.2 MiB (6%)
Language                                 : Russian
Default                                  : Yes
Alternate group                          : 1
Encoded date                             : UTC 2016-11-27 20:19:44
Tagged date                              : UTC 2016-11-27 20:23:06

Menu
ID                                       : 3
Codec ID                                 : text
Duration                                 : 1 h 16 min
Language                                 : English
Encoded date                             : UTC 2016-11-27 20:23:06
Tagged date                              : UTC 2016-11-27 20:23:06
Menu For                                 : 1
00:00:00.000                             : Глава 1
00:03:57.520                             : Глава 2
00:08:18.840                             : Глава 3
00:14:03.840                             : Глава 4
00:19:15.840                             : Глава 5
00:24:02.240                             : Глава 6
00:28:46.600                             : Глава 7
00:33:31.840                             : Глава 8
00:39:04.959                             : Глава 9
00:45:06.200                             : Глава 10
00:50:19.120                             : Глава 11
00:55:24.560                             : Глава 12
01:01:50.040                             : Глава 13
01:06:35.520                             : Глава 14
01:10:43.520                             : Глава 15
Bit rate mode                            : CBR


Скриншоты:



Время раздачи: 24/7 (круглосуточно) (до появления первых 3-5 скачавших)
 
Не забывайте говорить Спасибо. Не уходите с раздачи!   
Торрент: Зарегистрирован [28 ноя 2016, 07:05] Для скачивания .torrent
необходима регистрация
Или скачать с помощью
MediaGet
Статус:
Проверен
 
.torrent скачан: 0 раз
Хэш: 8d3066d82907b1eb344467407fcafadb03f77cb1
Размер: 1.14 ГБ (1 226 129 432 байт)
Стать Автором раздачи
 
 
Раздал: 100 ГБ
Скачал: 0 байт
Ратио: Seed.
Сообщения: 94048
Зарегистрирован: 09 апр 2015, 22:31


  • Похожие торренты
    Ответы
    Просмотры
    Последнее сообщение

Вернуться в Видео для мобильных устройств

Ресурс не предоставляет электронные версии произведений, а занимается лишь коллекционированием и каталогизацией ссылок, присылаемых и публикуемых на форуме нашими читателями. Если вы являетесь правообладателем какого-либо представленного материала и не желаете чтобы ссылка на него находилась в нашем каталоге, свяжитесь с нами и мы незамедлительно удалим её. Файлы для обмена на трекере предоставлены пользователями сайта, и администрация не несёт ответственности за их содержание. Просьба не заливать файлы, защищенные авторскими правами, а также файлы нелегального содержания!
cron