Discovery. Выжить после селфи [1-2 серии из ?] / Still Alive (2015) HDTVRip (Обновляемая)

 
 Статистика раздачи 
Размер: 1.07 ГБ   |  Зарегистрирован: 28 ноя 2016, 07:02   |   .torrent скачан: 0 раз
Сидеров: 1  [ 0 байт/сек ]     Личеров: 0  [ 0 байт/сек ]  
  

Discovery. Выжить после селфи [1-2 серии из ?] / Still Alive (2015) HDTVRip (Обновляемая)

Сообщение explosiveone » 28 ноя 2016, 07:02

Discovery. Выжить после селфи [1-2 серии из ?] / Still Alive (2015) HDTVRip

Телекомпания: США, Discovery Communications, LLC.
Жанр: Документальный, приключения

Описание:
Еще десять лет назад YouTube, GoPro, смартфоны и социальные сети были для нас в новинку, но с тех пор многое изменилось. Теперь мы можем взглянуть на мир через объектив камеры и вновь пережить самые памятные события в жизни. Новая программа «Выжить после селфи» расскажет об уникальных историях выживания, снятые людьми, которые побывали на грани жизни и смерти и сняли это на камеру. Под снежной лавиной, в подземной пещере, в открытом море и водах бурной реки, в лапах медведя или в пасти акулы – с каждым из участников программы в тот момент был маленький цифровой свидетель, который и запечатлел судьбоносные моменты. И теперь у нас есть возможность оказаться на месте каждого из героев программы и их глазами увидеть всё, что произошло.

Продолжительность: 2 x ~ 00:44:00
Качество видео: HDTVRip
Перевод: Профессиональный (одноголосый, закадровый)

Видео: Xvid, 720x400, ~1540 Кбит/с
Аудио: AC3, 2 ch, 192 Кбит/

Релиз от:
Код: Выделить всё

           [b]Код:[/b] General
Complete name                  Выжить после селфи HitWay\01 Выжить после селфи.avi
Format                         : AVI
Format/Info                    : Audio Video Interleave
File size                      : 548 MiB
Duration                       : 43mn 56s
Overall bit rate               : 1 743 Kbps
Writing application            : VirtualDubMod 1.5.10.3 | [url=http://www.virtualdub-fr.org]www.virtualdub-fr.org[/url] || (build 2550/release)
Writing library                : VirtualDubMod build 2550/release

Video
ID                             : 0
Format                         : MPEG-4 Visual
Format profile                 : Advanced Simple@L5
Format settings, BVOP          : 1
Format settings, QPel          : No
Format settings, GMC           : No warppoints
Format settings, Matrix        : Custom
Codec ID                       : XVID
Codec ID/Hint                  : XviD
Duration                       : 43mn 56s
Bit rate                       : 1 540 Kbps
Width                          : 720 pixels
Height                         : 400 pixels
Display aspect ratio           : 16:9
Frame rate                     : 30.000 fps
Color space                    : YUV
Chroma subsampling             : 4:2:0
Bit depth                      : 8 bits
Scan type                      : Progressive
Compression mode               : Lossy
Bits/(Pixel*Frame)             : 0.178
Stream size                    : 484 MiB (88%)
Writing library                : XviD 73

Audio
ID                             : 1
Format                         : AC-3
Format/Info                    : Audio Coding 3
Mode extension                 : CM (complete main)
Format settings, Endianness    : Big
Codec ID                       : 2000
Duration                       : 43mn 56s
Bit rate mode                  : Constant
Bit rate                       : 192 Kbps
Channel(s)                     : 2 channels
Channel positions              : Front: L R
Sampling rate                  : 48.0 KHz
Frame rate                     : 31.250 fps (1536 spf)
Compression mode               : Lossy
Stream size                    : 60.4 MiB (11%)
Alignment                      : Split accross interleaves
Interleave, duration           : 33 ms (1.00 video frame)
Interleave, preload duration   : 500 ms
Внимание! Раздача ведётся путём добавления новых серий; при каждом добавлении создfётся новый торрент. Чтобы начать докачку новой серии, пользователям необходимо сделать следующее: (1) остановить скачивание, (2) удалить старый торрент у себя из клиента (старые серии удалять не надо), (3) скачать новый торрент и запустить его у себя в клиенте вместо старого, при этом указать клиенту путь в старую папку куда и должно происходить скачивание новых серий.

Ваш клиент при этом должен произвести хеширование (проверку) старой папки (если не производит сам - помогите ему сделать это), и будет докачивать только те серии которых у вас ещё нет. Старые серии при этом не удаляются, а продолжают раздаваться!

Eсли вы уже удалили старые серии, то предотвратить повторную закачку старых серий можно, отжав галочку в соответсвующих местах при запуске нового торрента.

Скриншоты:


Время раздачи: 24/7
 
Не забывайте говорить Спасибо. Не уходите с раздачи!   
Торрент: Зарегистрирован [28 ноя 2016, 07:02] Для скачивания .torrent
необходима регистрация
Или скачать с помощью
MediaGet
Статус:
Проверен
 
.torrent скачан: 0 раз
Хэш: 5d22bd8fe3cb24e84d96738ca7dd736008551dd4
Размер: 1.07 ГБ (1 144 369 152 байт)
Стать Автором раздачи
 
 
Раздал: 100 ГБ
Скачал: 0 байт
Ратио: Seed.
Сообщения: 85837
Зарегистрирован: 09 апр 2015, 22:31


  • Похожие торренты
    Ответы
    Просмотры
    Последнее сообщение

Вернуться в Discovery

Кто сейчас на конференции

Сейчас эту тему просматривают: нет зарегистрированных пользователей и гости: 1

Ресурс не предоставляет электронные версии произведений, а занимается лишь коллекционированием и каталогизацией ссылок, присылаемых и публикуемых на форуме нашими читателями. Если вы являетесь правообладателем какого-либо представленного материала и не желаете чтобы ссылка на него находилась в нашем каталоге, свяжитесь с нами и мы незамедлительно удалим её. Файлы для обмена на трекере предоставлены пользователями сайта, и администрация не несёт ответственности за их содержание. Просьба не заливать файлы, защищенные авторскими правами, а также файлы нелегального содержания!