Москва, я терплю тебя (2016) WEB-DLRip [H.264] [MP4|1024x428]

 
 Статистика раздачи 
Размер: 1.39 ГБ   |  Зарегистрирован: 28 ноя 2016, 06:59   |   .torrent скачан: 2 раз
Сидеров: 1  [ 0 байт/сек ]     Личеров: 0  [ 0 байт/сек ]  
  

Москва, я терплю тебя (2016) WEB-DLRip [H.264] [MP4|1024x428]

Сообщение explosiveone » 28 ноя 2016, 06:59

Москва, я терплю тебя (2016) WEB-DLRip


Производство: Россия
Жанр: Драма, Мелодрама, Комедия

Режиссер: Сергей Аксёнов
Актеры: Илья Ермолов, Евгений Морозов, Николай Орловский, Лина Шишова, Марина Забелина, Евгений Волоцкий, Денис Шведов, Ольга Аксёнова, Дмитрий Супонин, Ульяна Урванцева

Описание:
Москва. Редкий солнечный день. Александр надеется отдохнуть от рабочей суеты и заняться любимым делом. Однако клиенты требуют встреч, а девушка жаждет похода по магазинам. Вдобавок ко всему, на один день из Гомеля, приезжает бывший одноклассник, который, во что бы то ни стало, хочет выпить с Саней пиво. Да к тому же, срочно требуется помощь ещё одному другу. А тут, вдруг, к одной из клиенток вспыхивает любовь. А приехавший одноклассник внезапно рушит все планы. И всё это за один день. Оказывается, в бешеном водовороте столичной жизни, очень легко потерять себя. Либо наоборот, найти.



Релиз от: NNMClub
Продолжительность: 01:32:59
Качество видео: WEB-DLRip
Перевод: Оригинальный (iTunes)
Вид субтитров: Отсутствуют

Видео: AVC/H.264 (Main@L3.1), 1024x428 (2.40:1), 2000 Кбит/сек
Аудио #1: AC3, 2 канала, 192 Кбит/сек - русский
Код:
General
Complete name                            : C:\CREATE\264mod1\out\Moskva.ya.terplyu.tebya.2016.576p.WEB-DLRip.AAC.h264.NNMclub.mp4
Format                                   : MPEG-4
Format profile                           : Base Media / Version 2
Codec ID                                 : mp42 (mp42/isom)
File size                                : 1.39 GiB
Duration                                 : 1 h 32 min
Overall bit rate mode                    : Variable
Overall bit rate                         : 2 133 kb/s
Movie name                               : Москва, я терплю тебя
Performer                                : Сергей Аксёнов
Director                                 : Сергей Аксёнов
Actor                                    : Илья Ермолов / Евгений Морозов / Николай Орловский / Лина Шишова / Марина Забелина
Producer                                 : Сергей Аксёнов / Андрей Аксёнов
Genre                                    : Русское кино
ContentType                              : Short Film
Description                              : Москва. Редкий солнечный день. Александр надеется отдохнуть от рабочей суеты и заняться любимым
Recorded date                            : 2016-11-21
Encoded date                             : UTC 2016-11-27 18:53:11
Tagged date                              : UTC 2016-11-27 18:57:11
Copyright                                : © 2016 Аксёнов Фильм
Cover                                    : Yes
LongDescription                          : Москва. Редкий солнечный день. Александр надеется отдохнуть от рабочей суеты и заняться любимым делом. Однако клиенты требуют встреч, а девушка жаждет похода по магазинам. Вдобавок ко всему, на один день из Гомеля, приезжает бывший одноклассник, который, во что бы то ни стало, хочет выпить с Саней пиво. Да к тому же, срочно требуется помощь ещё одному другу. А тут, вдруг, к одной из клиенток вспыхивает любовь. А приехавший одноклассник внезапно рушит все планы. И всё это за один день. Оказывается, в бешеном водовороте столичной жизни, очень легко потерять себя. Либо наоборот, найти.
AppleStoreCountry                        : Unknown Country
AppleStoreCatalogID                      : 1170572138
ContentRating                            : ru-movie|16+|375|

Video
ID                                       : 1
Format                                   : AVC
Format/Info                              : Advanced Video Codec
Format profile                           :
Format settings, CABAC                   : Yes
Format settings, ReFrames                : 3 frames
Codec ID                                 : avc1
Codec ID/Info                            : Advanced Video Coding
Duration                                 : 1 h 32 min
Bit rate                                 : 2 000 kb/s
Width                                    : 1 024 pixels
Height                                   : 428 pixels
Display aspect ratio                     : 2.40:1
Frame rate mode                          : Constant
Frame rate                               : 25.000 FPS
Color space                              : YUV
Chroma subsampling                       : 4:2:0
Bit depth                                : 8 bits
Scan type                                : Progressive
Bits/(Pixel*Frame)                       : 0.183
Stream size                              : 1.30 GiB (94%)
Writing library                          : x264 core 148 r2721+55 e19946b t_mod_Custom [8-bit@all X86_64]
Encoding settings                        : cabac=1 / ref=3 / deblock=1:-1:-1 / analyse=0x1:0x131 / me=umh / subme=7 / psy=1 / fade_compensate=0.00 / psy_rd=1.00:0.20 / mixed_ref=1 / me_range=32 / chroma_me=1 / trellis=2 / 8x8dct=0 / cqm=0 / deadzone=21,11 / fast_pskip=0 / chroma_qp_offset=-3 / threads=13 / lookahead_threads=2 / sliced_threads=0 / nr=0 / decimate=0 / interlaced=0 / bluray_compat=0 / constrained_intra=0 / fgo=0 / bframes=3 / b_pyramid=1 / b_adapt=2 / b_bias=0 / direct=3 / weightb=1 / open_gop=0 / weightp=2 / keyint=250 / keyint_min=25 / scenecut=40 / intra_refresh=0 / rc_lookahead=60 / rc=2pass / mbtree=1 / bitrate=2000 / ratetol=1.0 / qcomp=0.60 / qpmin=0:0:0 / qpmax=69:69:69 / qpstep=4 / cplxblur=20.0 / qblur=0.5 / vbv_maxrate=10000 / vbv_bufsize=10000 / nal_hrd=none / filler=0 / ip_ratio=1.40 / aq=3:0.85 / aq-sensitivity=10.00 / aq-factor=1.00:1.00:1.00 / aq2=1:0.85 / aq2-sensitivity=15.00 / aq2-factor=1.00:1.00:1.00 / aq3=3:[0.50:0.50]:[0.50:0.50]:[0.50:0.50]:[0.50:0.50] / aq3-sensitivity=10.00 / aq3-factor=[1.00:1.00]:[1.00:1.00]:[1.00:1.00] / aq3-boundary=192:64:24
Encoded date                             : UTC 2016-11-27 18:53:11
Tagged date                              : UTC 2016-11-27 18:57:11
Color range                              : Limited
Color primaries                          : BT.709
Transfer characteristics                 : BT.709
Matrix coefficients                      : BT.709
Menus                                    : 3

Audio
ID                                       : 2
Format                                   : AAC
Format/Info                              : Advanced Audio Codec
Format profile                           : LC
Codec ID                                 : 40
Duration                                 : 1 h 32 min
Source duration                          : 1 h 32 min
Bit rate mode                            : Variable
Bit rate                                 : 128 kb/s
Maximum bit rate                         : 133 kb/s
Channel(s)                               : 2 channels
Channel positions                        : Front: L R
Sampling rate                            : 48.0 kHz
Frame rate                               : 46.875 FPS (1024 spf)
Compression mode                         : Lossy
Stream size                              : 85.1 MiB (6%)
Source stream size                       : 85.1 MiB (6%)
Language                                 : Russian
Default                                  : Yes
Alternate group                          : 1
Encoded date                             : UTC 2016-11-27 18:53:11
Tagged date                              : UTC 2016-11-27 18:57:11

Menu
ID                                       : 3
Codec ID                                 : text
Duration                                 : 1 h 32 min
Language                                 : English
Encoded date                             : UTC 2016-11-27 18:57:11
Tagged date                              : UTC 2016-11-27 18:57:11
Menu For                                 : 1
00:00:00.000                             : 1
00:05:17.480                             : 2
00:11:04.320                             : 3
00:18:16.080                             : 4
00:24:15.880                             : 5
00:30:14.000                             : 6
00:36:50.160                             : 7
00:44:07.480                             : 8
00:49:44.560                             : 9
00:56:20.640                             : 10
01:02:17.200                             : 11
01:08:43.800                             : 12
01:15:23.640                             : 13
01:22:48.680                             : 14
Bit rate mode                            : VBR


Скриншоты:



Время раздачи: 24/7 (круглосуточно) (до появления первых 3-5 скачавших)
 
Не забывайте говорить Спасибо. Не уходите с раздачи!   
Торрент: Зарегистрирован [28 ноя 2016, 06:59] Для скачивания .torrent
необходима регистрация
Или скачать с помощью
MediaGet
Статус:
Проверен
 
.torrent скачан: 2 раз
Хэш: 8d27955f875b21b0752a048fd1af32187bdd9622
Размер: 1.39 ГБ (1 487 627 762 байт)
Стать Автором раздачи
 
 
Раздал: 100 ГБ
Скачал: 0 байт
Ратио: Seed.
Сообщения: 94085
Зарегистрирован: 09 апр 2015, 22:31


  • Похожие торренты
    Ответы
    Просмотры
    Последнее сообщение

Вернуться в Видео для мобильных устройств

Ресурс не предоставляет электронные версии произведений, а занимается лишь коллекционированием и каталогизацией ссылок, присылаемых и публикуемых на форуме нашими читателями. Если вы являетесь правообладателем какого-либо представленного материала и не желаете чтобы ссылка на него находилась в нашем каталоге, свяжитесь с нами и мы незамедлительно удалим её. Файлы для обмена на трекере предоставлены пользователями сайта, и администрация не несёт ответственности за их содержание. Просьба не заливать файлы, защищенные авторскими правами, а также файлы нелегального содержания!
cron