NG. Седьмой континент Антарктика / Continent 7 Antarctica (2016) HDTVRip (сезон 1, серия 1 из 6) (обновляемая)

 
 Статистика раздачи 
Размер: 632 МБ   |  Зарегистрирован: 28 ноя 2016, 06:48   |   .torrent скачан: 0 раз
Сидеров: 1  [ 0 байт/сек ]     Личеров: 0  [ 0 байт/сек ]  
  

NG. Седьмой континент Антарктика / Continent 7 Antarctica (2016) HDTVRip (сезон 1, серия 1 из 6) (обновляемая)

Сообщение explosiveone » 28 ноя 2016, 06:48

NG. Седьмой континент Антарктика / Continent 7 Antarctica (2016) HDTVRip (сезон 1, серия 1 из 6)

Телекомпания: National Geographic Studios
Жанр: Документальный, научно-популярный

Участники: Ученые, исследователи

Описание:
Седьмой континент: Антарктика покажет вам самые экстремальные условия на Земле, продемонтрирует, насколько много усилий нужно приложить, чтобы поддерживать жизнь человека в этих местах, и расскажет о крупнейших открытиях науки. Вы поучаствуете в миссиях на льду, подо льдом и на некоторых ледяных вершинах вместе с учёными и специалистами по выживанию, которые объединяют усилия и борются с жестокими силами природы, чтобы изменить этот мир.

Продолжительность: 1х ~ 00:46:28
Качество видео: HDTVRip
Перевод: Профессиональный (одноголосый, закадровый)

Видео: Xvid, 720x400, ~1700 kbps
Аудио: AC3, 2 ch, 192 kbps
Код: Выделить всё
General
Complete name                            : H:\Download\Научно-популярные фильмы\Седьмой континент Антарктика\01_Storming Antarctica.HDTVRip.by RockeT [KaztorrentS].avi
Format                                   : AVI
Format/Info                              : Audio Video Interleave
File size                                : 632 MiB
Duration                                 : 46mn 28s
Overall bit rate                         : 1 902 Kbps
Writing application                      : VirtualDubMod 1.5.10.3 | [url=http://www.virtualdub-fr.org]www.virtualdub-fr.org[/url] || (build 2550/release)
Writing library                          : VirtualDubMod build 2550/release

Video
ID                                       : 0
Format                                   : MPEG-4 Visual
Format profile                           : Advanced [email protected]
Format settings, BVOP                    : 1
Format settings, QPel                    : No
Format settings, GMC                     : No warppoints
Format settings, Matrix                  : Default (MPEG)
Codec ID                                 : XVID
Codec ID/Hint                            : XviD
Duration                                 : 46mn 28s
Bit rate                                 : 1 700 Kbps
Width                                    : 720 pixels
Height                                   : 400 pixels
Display aspect ratio                     : 16:9
Frame rate                               : 25.000 fps
Color space                              : YUV
Chroma subsampling                       : 4:2:0
Bit depth                                : 8 bits
Scan type                                : Progressive
Compression mode                         : Lossy
Bits/(Pixel*Frame)                       : 0.236
Stream size                              : 565 MiB (89%)
Writing library                          : XviD 1.2.1 (UTC 2008-12-04)

Audio
ID                                       : 1
Format                                   : AC-3
Format/Info                              : Audio Coding 3
Mode extension                           : CM (complete main)
Format settings, Endianness              : Big
Codec ID                                 : 2000
Duration                                 : 46mn 28s
Bit rate mode                            : Constant
Bit rate                                 : 192 Kbps
Channel(s)                               : 2 channels
Channel positions                        : Front: L R
Sampling rate                            : 48.0 KHz
Frame rate                               : 31.250 fps (1536 spf)
Compression mode                         : Lossy
Stream size                              : 63.8 MiB (10%)
Alignment                                : Split accross interleaves
Interleave, duration                     : 40 ms (1.00 video frame)
Interleave, preload duration             : 500 ms
01. Штормы Антарктики / Storming Antarctica
Описание: Шесть команд учёных прибыли в Антарктику, чтобы выяснить, как изменение климата влияет на жизнь на планете.

раздача ведётся путём добавления новых серий; при каждом добавлении создаётся новый торрент. Чтобы начать докачку новой серии, пользователям необходимо сделать следующее:
- Остановить скачивание.
- Удалить старый торрент у себя из клиента (старые серии удалять не надо).
- Скачать новый торрент и запустить его у себя в клиенте вместо старого, при этом указать клиенту путь в старую папку куда и должно происходить скачивание новых серий.
от
Автор Рипа: RockeT

Скриншоты:


Время раздачи: 24/7
 
Не забывайте говорить Спасибо. Не уходите с раздачи!   
Торрент: Зарегистрирован [28 ноя 2016, 06:48] Для скачивания .torrent
необходима регистрация
Или скачать с помощью
MediaGet
Статус:
Проверен
 
.torrent скачан: 0 раз
Хэш: 31d6fcb5189b3c715191d2ce76d781374ef1fb54
Размер: 632 МБ (662 702 080 байт)
Стать Автором раздачи
 
 
Раздал: 100 ГБ
Скачал: 0 байт
Ратио: Seed.
Сообщения: 82646
Зарегистрирован: 09 апр 2015, 22:31


  • Похожие торренты
    Ответы
    Просмотры
    Последнее сообщение

Вернуться в BBC

Кто сейчас на конференции

Сейчас эту тему просматривают: нет зарегистрированных пользователей и гости: 1

Ресурс не предоставляет электронные версии произведений, а занимается лишь коллекционированием и каталогизацией ссылок, присылаемых и публикуемых на форуме нашими читателями. Если вы являетесь правообладателем какого-либо представленного материала и не желаете чтобы ссылка на него находилась в нашем каталоге, свяжитесь с нами и мы незамедлительно удалим её. Файлы для обмена на трекере предоставлены пользователями сайта, и администрация не несёт ответственности за их содержание. Просьба не заливать файлы, защищенные авторскими правами, а также файлы нелегального содержания!