BBC: Horizon. Океаны Солнечной системы / Oceans of the Solar System (2015) HDTVRip [H.264/720p]

 
 Статистика раздачи 
Размер: 1.5 ГБ   |  Зарегистрирован: 28 ноя 2016, 06:32   |   .torrent скачан: 2 раз
Сидеров: 1  [ 0 байт/сек ]     Личеров: 0  [ 0 байт/сек ]  
  

BBC: Horizon. Океаны Солнечной системы / Oceans of the Solar System (2015) HDTVRip [H.264/720p]

Сообщение explosiveone » 28 ноя 2016, 06:32

BBC: Horizon. Океаны Солнечной системы / Oceans of the Solar System (2015) HDTVRip [H.264/720p]

Телекомпания: Великобритания, BBC Science Production London
Жанр: Документальный, научно-популярный
Режиссер: David Stewart

Описание:
Когда-то мы думали, что океаны существуют только на нашей планете. Сейчас же астрономы обнаруживают их по всей Солнечной системе. Мы приглашаем вас в удивительное путешествие. Из ледяных пустынь Энцелада в доисторические океаны Марса и метановые озера крупнейшего спутника Сатурна - Титана. Неужели мы наконец приблизились к открытию существования жизни на других планетах?..

Продолжительность: 00:51:21
Качество видео: HDTVRip
Перевод: Двуголосый закадровый, профессиональный, Видеофильм ТВ

Видео: AVC/H.264, 1280x720, ~4000 kbps
Аудио: AC3, 2 ch, 192 kbps, CBR
Код: Выделить всё
Format                         : Matroska
Format version                 : Version 4 / Version 2
File size                      : 1.50 GiB
Duration                       : 51 min 20 s
Overall bit rate mode          : Variable
Overall bit rate               : 4 191 kb/s
Encoded date                   : UTC 2016-11-26 17:23:41
Writing application            : mkvmerge v7.3.0 ('Nouages') 64bit built on Oct 22 2014 18:53:34
Writing library                : libebml v1.3.0 + libmatroska v1.4.1

Video
ID                             : 1
Format                         : AVC
Format/Info                    : Advanced Video Codec
Format profile                 :
Format settings, CABAC         : Yes
Format settings, ReFrames      : 3 frames
Codec ID                       : V_MPEG4/ISO/AVC
Duration                       : 51 min 20 s
Bit rate mode                  : Variable
Bit rate                       : 4 000 kb/s
Maximum bit rate               : 8 000 kb/s
Width                          : 1 280 pixels
Height                         : 720 pixels
Display aspect ratio           : 16:9
Frame rate mode                : Constant
Frame rate                     : 25.000 FPS
Standard                       : NTSC
Color space                    : YUV
Chroma subsampling             : 4:2:0
Bit depth                      : 8 bits
Scan type                      : Progressive
Bits/(Pixel*Frame)             : 0.174
Stream size                    : 1.43 GiB (95%)
Writing library                : x264 core 114
Encoding settings              : cabac=1 / ref=3 / deblock=1:0:0 / analyse=0x3:0x113 / me=hex / subme=7 / psy=1 / psy_rd=1.00:0.00 / mixed_ref=1 / me_range=16 / chroma_me=1 / trellis=1 / 8x8dct=1 / cqm=2 / deadzone=21,11 / fast_pskip=1 / chroma_qp_offset=-4 / threads=6 / sliced_threads=0 / slices=1 / nr=0 / decimate=1 / interlaced=0 / constrained_intra=0 / bframes=3 / b_pyramid=0 / b_adapt=1 / b_bias=0 / direct=1 / weightb=1 / open_gop=0 / weightp=2 / keyint=250 / keyint_min=25 / scenecut=40 / intra_refresh=0 / rc_lookahead=40 / rc=2pass / mbtree=1 / bitrate=4000 / ratetol=1.0 / qcomp=0.60 / qpmin=5 / qpmax=69 / qpstep=4 / cplxblur=20.0 / qblur=0.5 / vbv_maxrate=8000 / vbv_bufsize=7995 / nal_hrd=vbr / ip_ratio=1.40 / aq=1:1.00
Default                        : Yes
Forced                         : No
Color range                    : Limited
Color primaries                : BT.709
Transfer characteristics       : BT.709
Matrix coefficients            : BT.709

Audio
ID                             : 2
Format                         : AC-3
Format/Info                    : Audio Coding 3
Mode extension                 : CM (complete main)
Format settings, Endianness    : Big
Codec ID                       : A_AC3
Duration                       : 51 min 20 s
Bit rate mode                  : Constant
Bit rate                       : 192 kb/s
Channel(s)                     : 2 channels
Channel positions              : Front: L R
Sampling rate                  : 48.0 kHz
Frame rate                     : 31.250 FPS (1536 spf)
Compression mode               : Lossy
Stream size                    : 70.5 MiB (5%)
Default                        : Yes
Forced                         : No

Скриншоты:





Все одноименные релизы в Клубе

Время раздачи: 24/7 (до появления первых 3-5 скачавших)
 
Не забывайте говорить Спасибо. Не уходите с раздачи!   
Торрент: Зарегистрирован [28 ноя 2016, 06:32] Для скачивания .torrent
необходима регистрация
Или скачать с помощью
MediaGet
Статус:
Проверен
 
.torrent скачан: 2 раз
Хэш: 9bcd4d09601025ed2cd559fdd492de5801e5881b
Размер: 1.5 ГБ (1 613 874 122 байт)
Стать Автором раздачи
 
 
Раздал: 100 ГБ
Скачал: 0 байт
Ратио: Seed.
Сообщения: 83290
Зарегистрирован: 09 апр 2015, 22:31


  • Похожие торренты
    Ответы
    Просмотры
    Последнее сообщение

Вернуться в BBC

Кто сейчас на конференции

Сейчас эту тему просматривают: нет зарегистрированных пользователей и гости: 1

Ресурс не предоставляет электронные версии произведений, а занимается лишь коллекционированием и каталогизацией ссылок, присылаемых и публикуемых на форуме нашими читателями. Если вы являетесь правообладателем какого-либо представленного материала и не желаете чтобы ссылка на него находилась в нашем каталоге, свяжитесь с нами и мы незамедлительно удалим её. Файлы для обмена на трекере предоставлены пользователями сайта, и администрация не несёт ответственности за их содержание. Просьба не заливать файлы, защищенные авторскими правами, а также файлы нелегального содержания!