(ethnic, world, didgeridoo) [cd] Christopher Mad'dene & Bruno Moury - Spirit of the Wildman, Didgeridoo and African Percussion Instruments (1998), FLAC (tracks+.cue), lossless

 
 Статистика раздачи 
Размер: 254.61 МБ   |  Зарегистрирован: 27 ноя 2016, 04:00   |   .torrent скачан: 0 раз
Сидеров: 1  [ 0 байт/сек ]     Личеров: 0  [ 0 байт/сек ]  
  

(ethnic, world, didgeridoo) [cd] Christopher Mad'dene & Bruno Moury - Spirit of the Wildman, Didgeridoo and African Percussion Instruments (1998), FLAC (tracks+.cue), lossless

Сообщение aLaVodka » 27 ноя 2016, 04:00

(ethnic, world, didgeridoo) [cd] Christopher Mad'dene & Bruno Moury - Spirit of the Wildman, Didgeridoo and African Percussion Instruments (1998), FLAC (tracks+.cue), lossless


Christopher Mad'dene & Bruno Moury
Spirit of the Wildman
Didgeridoo and African Percussion Instruments

Жанр: ethnic, world, didgeridoo
Год выпуска: 1998
Издатель (лейбл):Playasound
Формат: FLAC (tracks+.cue)
Битрейт аудио: lossless
Продолжительность 55`03
Источник: what.cd


tracks


1 Spirits 10:33
2 Running Man 7:37
3 Mowgli, the Wild Child 7:10
4 Wild Savana 12:19
5 Desert Dream 12:49
6 Tribal 4:34

Код: Выделить всё
Exact Audio Copy V1.1 from 23. June 2015

EAC extraction logfile from 29. September 2016, 15:38

Christopher Mad'dene & Bruno Moury / Spirit of the Wildman: Didgeridoo and African Percussion Instruments

Used drive  : TSSTcorpCDDVDW SH-S223L   Adapter: 1  ID: 0

Read mode               : Secure
Utilize accurate stream : Yes
Defeat audio cache      : Yes
Make use of C2 pointers : No

Read offset correction                      : 6
Overread into Lead-In and Lead-Out          : No
Fill up missing offset samples with silence : Yes
Delete leading and trailing silent blocks   : No
Null samples used in CRC calculations       : Yes
Used interface                              : Native Win32 interface for Win NT & 2000
Gap handling                                : Appended to previous track

Used output format              : User Defined Encoder
Selected bitrate                : 896 kBit/s
Quality                         : High
Add ID3 tag                     : No
Command line compressor         : C:\Program Files\Exact Audio Copy\FLAC\FLAC.EXE
Additional command line options : -8 -e -V -T "ARTIST=%artist%" -T "TITLE=%title%" -T "ALBUM=%albumtitle%" -T "DATE=%year%" -T "TRACKNUMBER=%tracknr%" -T "GENRE=%genre%" -T "PERFORMER=%albuminterpret%" -T "COMPOSER=%composer%" %haslyrics%--tag-from-file=LYRICS="%lyricsfile%"%haslyrics% -T "ALBUMARTIST=%albumartist%" -T "DISCNUMBER=%cdnumber%" -T "TOTALDISCS=%totalcds%" -T "TOTALTRACKS=%numtracks%" -T "COMMENT=%comment%" %source% -o %dest%

TOC of the extracted CD

     Track |   Start  |  Length  | Start sector | End sector
    ---------------------------------------------------------
        1  |  0:00.00 | 10:33.12 |         0    |    47486
        2  | 10:33.12 |  7:37.33 |     47487    |    81794
        3  | 18:10.45 |  7:09.38 |     81795    |   114007
        4  | 25:20.08 | 12:19.19 |    114008    |   169451
        5  | 37:39.27 | 12:48.63 |    169452    |   227114
        6  | 50:28.15 |  4:34.24 |    227115    |   247688

Track  1

     Filename N:\rips\Christopher Mad'dene & Bruno Moury - Spirit of the Wildman - Didgeridoo and African Percussion Instruments (1998) [FLAC]\01 Spirits.wav

     Pre-gap length  0:00:02.00

     Peak level 99.5 %
     Extraction speed 1.6 X
     Track quality 100.0 %
     Test CRC BC069F62
     Copy CRC BC069F62
     Accurately ripped (confidence 3)  [F9DCDDEC]  (AR v2)
     Copy OK

Track  2

     Filename N:\rips\Christopher Mad'dene & Bruno Moury - Spirit of the Wildman - Didgeridoo and African Percussion Instruments (1998) [FLAC]\02 Running Man.wav

     Pre-gap length  0:00:03.60

     Peak level 98.8 %
     Extraction speed 1.9 X
     Track quality 100.0 %
     Test CRC 22A8C61B
     Copy CRC 22A8C61B
     Accurately ripped (confidence 3)  [330656BD]  (AR v2)
     Copy OK

Track  3

     Filename N:\rips\Christopher Mad'dene & Bruno Moury - Spirit of the Wildman - Didgeridoo and African Percussion Instruments (1998) [FLAC]\03 Mowgli, the Wild Child.wav

     Pre-gap length  0:00:03.60

     Peak level 99.8 %
     Extraction speed 1.8 X
     Track quality 100.0 %
     Test CRC 703B9A1A
     Copy CRC 703B9A1A
     Accurately ripped (confidence 2)  [FD05BEF3]  (AR v2)
     Copy OK

Track  4

     Filename N:\rips\Christopher Mad'dene & Bruno Moury - Spirit of the Wildman - Didgeridoo and African Percussion Instruments (1998) [FLAC]\04 Wild Savana.wav

     Pre-gap length  0:00:03.60

     Peak level 99.6 %
     Extraction speed 1.9 X
     Track quality 100.0 %
     Test CRC E813B47A
     Copy CRC E813B47A
     Accurately ripped (confidence 3)  [EF806C2B]  (AR v2)
     Copy OK

Track  5

     Filename N:\rips\Christopher Mad'dene & Bruno Moury - Spirit of the Wildman - Didgeridoo and African Percussion Instruments (1998) [FLAC]\05 Desert Dream.wav

     Pre-gap length  0:00:03.60

     Peak level 99.0 %
     Extraction speed 1.8 X
     Track quality 99.9 %
     Test CRC F30FCCE6
     Copy CRC F30FCCE6
     Accurately ripped (confidence 2)  [B847781A]  (AR v2)
     Copy OK

Track  6

     Filename N:\rips\Christopher Mad'dene & Bruno Moury - Spirit of the Wildman - Didgeridoo and African Percussion Instruments (1998) [FLAC]\06 Tribal.wav

     Pre-gap length  0:00:03.60

     Peak level 99.5 %
     Extraction speed 0.8 X
     Track quality 100.0 %
     Test CRC 3353804D
     Copy CRC 3353804D
     Accurately ripped (confidence 3)  [D1E5F102]  (AR v2)
     Copy OK

All tracks accurately ripped

No errors occurred

End of status report

==== Log checksum 7DD42D49428898F5F39FDBC8717350A51D4E2AD5B729A444BA9DE8949DCB9A48 ====
Код: Выделить всё
REM GENRE Unknown
REM DATE 1998
REM DISCID 370CE606
REM COMMENT "ExactAudioCopy v1.1"
PERFORMER "Christopher Mad'dene & Bruno Moury"
TITLE "Spirit of the Wildman: Didgeridoo and African Percussion Instruments"
FILE "01 Spirits.wav" WAVE
  TRACK 01 AUDIO
    TITLE "Spirits"
    PERFORMER "Christopher Mad'dene & Bruno Moury"
    ISRC FRZ409702171
    INDEX 01 00:00:00
  TRACK 02 AUDIO
    TITLE "Running Man"
    PERFORMER "Christopher Mad'dene & Bruno Moury"
    ISRC FRZ409702172
    INDEX 00 10:29:42
FILE "02 Running Man.wav" WAVE
    INDEX 01 00:00:00
  TRACK 03 AUDIO
    TITLE "Mowgli, the Wild Child"
    PERFORMER "Christopher Mad'dene & Bruno Moury"
    ISRC FRZ409702173
    INDEX 00 07:33:63
FILE "03 Mowgli, the Wild Child.wav" WAVE
    INDEX 01 00:00:00
  TRACK 04 AUDIO
    TITLE "Wild Savana"
    PERFORMER "Christopher Mad'dene & Bruno Moury"
    ISRC FRZ409702174
    INDEX 00 07:05:68
FILE "04 Wild Savana.wav" WAVE
    INDEX 01 00:00:00
  TRACK 05 AUDIO
    TITLE "Desert Dream"
    PERFORMER "Christopher Mad'dene & Bruno Moury"
    ISRC FRZ409702175
    INDEX 00 12:15:49
FILE "05 Desert Dream.wav" WAVE
    INDEX 01 00:00:00
  TRACK 06 AUDIO
    TITLE "Tribal"
    PERFORMER "Christopher Mad'dene & Bruno Moury"
    ISRC FRZ409702176
    INDEX 00 12:45:18
FILE "06 Tribal.wav" WAVE
    INDEX 01 00:00:00
 
Не забывайте говорить Спасибо. Не уходите с раздачи!   
Торрент: Зарегистрирован [27 ноя 2016, 04:00] Скачать торрент
Скачать торрент
[ Размер 20.9 КБ / Просмотров 156 ]
Статус:
Проверен
 
.torrent скачан: 0 раз
Хэш: a80dfc16a403c6b64632ef2ba8eecc1ed6ef0c58
Размер: 254.61 МБ (266 976 228 байт)
Стать Автором раздачи
 
 
Раздал: 100 ГБ
Скачал: 0 байт
Ратио: Seed.
Сообщения: 196174
Зарегистрирован: 09 апр 2015, 20:00


  • Похожие торренты
    Ответы
    Просмотры
    Последнее сообщение

Вернуться в Этническая музыка Австралии, Тихого и Индийского океанов (lossy и lossless)

Ресурс не предоставляет электронные версии произведений, а занимается лишь коллекционированием и каталогизацией ссылок, присылаемых и публикуемых на форуме нашими читателями. Если вы являетесь правообладателем какого-либо представленного материала и не желаете чтобы ссылка на него находилась в нашем каталоге, свяжитесь с нами и мы незамедлительно удалим её. Файлы для обмена на трекере предоставлены пользователями сайта, и администрация не несёт ответственности за их содержание. Просьба не заливать файлы, защищенные авторскими правами, а также файлы нелегального содержания!
cron