Азорские острова. Часть 3: Фауна, люди, образ жизни / Azores 3D: Explorers, Whales & Vulcanos (2011) BDRip3D [H.264/1080p][вертикальная анаморфная стереопара]

 
 Статистика раздачи 
Размер: 6.03 ГБ   |  Зарегистрирован: 26 ноя 2016, 22:16   |   .torrent скачан: 0 раз
Сидеров: 1  [ 0 байт/сек ]     Личеров: 0  [ 0 байт/сек ]  
  

Азорские острова. Часть 3: Фауна, люди, образ жизни / Azores 3D: Explorers, Whales & Vulcanos (2011) BDRip3D [H.264/1080p][вертикальная анаморфная стереопара]

Сообщение explosiveone » 26 ноя 2016, 22:16

Азорские острова. Часть 3: Фауна, люди, образ жизни / Azores 3D: Explorers, Whales & Vulcanos (2011) BDRip 3D

Телекомпания: NEW KSM
Жанр: Документальный, Видовой

Режиссер: Норберт Вандер (Norbert Vander)

Описание:
Азорские острова – мечта для любителей дикой природы. Острова вулканического происхождения представляют собой затейливый комплекс с маленькими бухточками, живописными заливами и чудесными видами. Третья часть фильма об уникальных Азорах, созданная также в живом 3D-формате, гарантирует вам полный «эффект погружения» - вы исследуете загадочные пещеры, образовавшиеся из застывшей лавы, изучите уникальный подводный мир островов, насладитесь живописным ландшафтом и, безусловно, влюбитесь в этот последний райский уголок Европы. Вы познакомитесь с дружелюбными людьми, которые населяют архипелаг, узнаете их быт, проникнитесь их неспешным образом жизни. Знакомство с Азорами подарит вам незабываемые впечатления.

Продолжительность: 00:55:19
Качество видео: BDRip
Перевод: Дублированный
Язык субтитров: Русский
Вид субтитров: Вшитые, отключаемые

Видео: AVC/H.264, 1920x1080, ~14000 kbps
Аудио #1: AC3, 6 ch, 640 kbps, CBR - русский
Аудио #2: AC3, 6 ch, 640 kbps, CBR - английский
Код: Выделить всё
Format                                   : Matroska
Format version                           : Version 4 / Version 2
File size                                : 6.03 GiB
Duration                                 : 55mn 19s
Overall bit rate mode                    : Variable
Overall bit rate                         : 15.6 Mbps
Movie name                               : AZOREN_DISC_3.Title3
Encoded date                             : UTC 2016-11-26 19:28:59
Writing application                      : mkvmerge v8.3.0 ('Over the Horizon') 64bit
Writing library                          : libebml v1.3.1 + libmatroska v1.4.2

Video
ID                                       : 1
Format                                   : AVC
Format/Info                              : Advanced Video Codec
Format profile                           :
Format settings, CABAC                   : Yes
Format settings, GOP                     : M=3, N=24
Codec ID                                 : V_MPEG4/ISO/AVC
Duration                                 : 55mn 19s
Bit rate mode                            : Variable
Bit rate                                 : 14.0 Mbps
Width                                    : 1 920 pixels
Height                                   : 1 080 pixels
Display aspect ratio                     : 16:9
Frame rate mode                          : Constant
Frame rate                               : 23.976 fps
Color space                              : YUV
Chroma subsampling                       : 4:2:0
Bit depth                                : 8 bits
Scan type                                : Progressive
Bits/(Pixel*Frame)                       : 0.282
Stream size                              : 5.42 GiB (90%)
Default                                  : Yes
Forced                                   : No
Color primaries                          : BT.709
Transfer characteristics                 : BT.709
Matrix coefficients                      : BT.709

Audio #1
ID                                       : 2
Format                                   : AC-3
Format/Info                              : Audio Coding 3
Mode extension                           : CM (complete main)
Format settings, Endianness              : Big
Codec ID                                 : A_AC3
Duration                                 : 55mn 19s
Bit rate mode                            : Constant
Bit rate                                 : 640 Kbps
Channel(s)                               : 6 channels
Channel positions                        : Front: L C R, Side: L R, LFE
Sampling rate                            : 48.0 KHz
Bit depth                                : 16 bits
Compression mode                         : Lossy
Stream size                              : 253 MiB (4%)
Language                                 : Russian
Default                                  : Yes
Forced                                   : No

Audio #2
ID                                       : 3
Format                                   : AC-3
Format/Info                              : Audio Coding 3
Mode extension                           : CM (complete main)
Format settings, Endianness              : Big
Codec ID                                 : A_AC3
Duration                                 : 55mn 19s
Bit rate mode                            : Constant
Bit rate                                 : 640 Kbps
Channel(s)                               : 6 channels
Channel positions                        : Front: L C R, Side: L R, LFE
Sampling rate                            : 48.0 KHz
Bit depth                                : 16 bits
Compression mode                         : Lossy
Stream size                              : 253 MiB (4%)
Language                                 : English
Default                                  : No
Forced                                   : No

Text
ID                                       : 4
Format                                   : PGS
Muxing mode                              : zlib
Codec ID                                 : S_HDMV/PGS
Language                                 : Russian
Default                                  : No
Forced                                   : No

Скриншоты:



Азорские острова на нашем трекере
Время раздачи: 24/7 (до появления первых 3-5 скачавших)
 
Не забывайте говорить Спасибо. Не уходите с раздачи!   
Торрент: Зарегистрирован [26 ноя 2016, 22:16] Для скачивания .torrent
необходима регистрация
Или скачать с помощью
MediaGet
Статус:
Проверен
 
.torrent скачан: 0 раз
Хэш: 94d2948049d7ae606f542f6fcc683d708e0396a5
Размер: 6.03 ГБ (6 478 092 035 байт)
Стать Автором раздачи
 
 
Раздал: 100 ГБ
Скачал: 0 байт
Ратио: Seed.
Сообщения: 82288
Зарегистрирован: 09 апр 2015, 22:31


  • Похожие торренты
    Ответы
    Просмотры
    Последнее сообщение

Вернуться в Флора и фауна (видео)

Кто сейчас на конференции

Сейчас эту тему просматривают: нет зарегистрированных пользователей и гости: 1

Ресурс не предоставляет электронные версии произведений, а занимается лишь коллекционированием и каталогизацией ссылок, присылаемых и публикуемых на форуме нашими читателями. Если вы являетесь правообладателем какого-либо представленного материала и не желаете чтобы ссылка на него находилась в нашем каталоге, свяжитесь с нами и мы незамедлительно удалим её. Файлы для обмена на трекере предоставлены пользователями сайта, и администрация не несёт ответственности за их содержание. Просьба не заливать файлы, защищенные авторскими правами, а также файлы нелегального содержания!