Звездный путь: Фильм / Star Trek: The Motion Picture (1979) HDRip [H.264] [MP4|1024x436] CTC

 
 Статистика раздачи 
Размер: 1.9 ГБ   |  Зарегистрирован: 26 ноя 2016, 22:11   |   .torrent скачан: 0 раз
Сидеров: 1  [ 0 байт/сек ]     Личеров: 0  [ 0 байт/сек ]  
  

Звездный путь: Фильм / Star Trek: The Motion Picture (1979) HDRip [H.264] [MP4|1024x436] CTC

Сообщение explosiveone » 26 ноя 2016, 22:11

Звездный путь: Фильм / Star Trek: The Motion Picture (1979) HDRip CTC

«The human adventure is just beginning»
Производство: США, Century Associates, Paramount Pictures
Жанр: Фантастика

Режиссер: Роберт Уайз
Актеры: Уильям Шетнер, Леонард Нимой, ДеФорест Келли, Джеймс Дуэн, Джордж Такей, Маджел Бэррет, Уолтер Кениг, Нишелль Николс, Персис Хамбатта, Стивен Коллинз

Описание:
Из глубин космоса, через Клингонский сектор к Земле приближается неопознанный объект просто гигантских размеров с неясными, но, возможно, враждебными намерениями, называющий себя «Виджер»; и Энтерпрайз оказывается единственным кораблем, способным успеть вовремя добраться до этого объекта для его исследования и ликвидации потенциальной опасности для Земли.
Это важнейшее задание поручается адмиралу Звездного Флота Джеймсу Т. Кирку, который получает в свое командование корабль USS Enterprise NCC1701 и всю свою старую команду. Итак, их путешествие начинается...


Рейтинг MPAA: PG (рекомендуется присутствие родителей)

Продолжительность: 02:12:00
Качество видео: HDRip
Перевод: Многоголосый закадровый - CTC
Язык субтитров: Русский, Английский
Вид субтитров: Вшитые

Видео: AVC/H.264 (Main@L3.1), 1024x436 (2.35:1), 1800 Кбит/сек
Аудио #1: AAC, 2 канала, 128 Кбит/сек - русский (многоголосый закадровый)
Аудио #2: AAC, 2 канала, 128 Кбит/сек - английский (оригинальный)
Код:
General
Complete name                            : C:\CREATE\264mod1\out\1\Star.Trek.(I).The.Motion.Picture.1979.576p.HDRip.AAC.x264.mp4
Format                                   : MPEG-4
Format profile                           : Base Media / Version 2
Codec ID                                 : mp42 (mp42/isom)
File size                                : 1.90 GiB
Duration                                 : 2h 12mn
Overall bit rate mode                    : Variable
Overall bit rate                         : 2 064 Kbps
Movie name                               : Star Trek I: The Motion Picture
Performer                                : Robert Wise
Director                                 : Robert Wise
Actor                                    : William Shatner / Leonard Nimoy / DeForest Kelley / Stephen Collins / James Doohan / George Takei / Majel Barrett / Persis Khambatta / Walter Koenig / Nichelle Nichols
Screenplay by                            : Harold Livingston
Producer                                 : Gene Roddenberry
Genre                                    : Sci-Fi & Fantasy
ContentType                              : Short Film
Description                              : The U.S.S. Enterprise proudly soars into cinema in the original Star Trek movie classic. When an unidentified alien destroys three powerful Klingon cruisers, Captain James T. Kirk (William Shatner) returns to the newly transformed U.S.S. Enterprise to take command. Leonard Nimoy, DeForest Kelley and the cast from the acclaimed Star Trek television series mobilize at warp speed to stop the alien intruder from its relentless flight toward Earth.
Recorded date                            : 1979-12-07
Encoded date                             : UTC 2016-08-19 12:53:08
Tagged date                              : UTC 2016-08-19 13:00:10
Copyright                                : © 1979 Paramount Pictures
Cover                                    : Yes
Rating                                   : None
LongDescription                          : The U.S.S. Enterprise proudly soars into cinema in the original Star Trek movie classic. When an unidentified alien destroys three powerful Klingon cruisers, Captain James T. Kirk (William Shatner) returns to the newly transformed U.S.S. Enterprise to take command. Leonard Nimoy, DeForest Kelley and the cast from the acclaimed Star Trek television series mobilize at warp speed to stop the alien intruder from its relentless flight toward Earth.
ContentRating                            : mpaa|PG|200|

Video
ID                                       : 1
Format                                   : AVC
Format/Info                              : Advanced Video Codec
Format profile                           : Main@L3
Format settings, CABAC                   : No
Format settings, ReFrames                : 3 frames
Codec ID                                 : avc1
Codec ID/Info                            : Advanced Video Coding
Duration                                 : 2h 12mn
Bit rate                                 : 1 800 Kbps
Width                                    : 1 024 pixels
Height                                   : 436 pixels
Display aspect ratio                     : 2.35:1
Frame rate mode                          : Variable
Frame rate                               : 23.976 (24000/1001) fps
Minimum frame rate                       : 23.810 fps
Maximum frame rate                       : 24.390 fps
Color space                              : YUV
Chroma subsampling                       : 4:2:0
Bit depth                                : 8 bits
Scan type                                : Progressive
Bits/(Pixel*Frame)                       : 0.168
Stream size                              : 1.66 GiB (87%)
Writing library                          : x264 core 148 r2705 3f5ed56
Encoding settings                        : cabac=0 / ref=3 / deblock=1:-1:-1 / analyse=0x1:0x131 / me=umh / subme=8 / psy=1 / psy_rd=1.00:0.00 / mixed_ref=1 / me_range=32 / chroma_me=1 / trellis=2 / 8x8dct=0 / cqm=0 / deadzone=21,11 / fast_pskip=0 / chroma_qp_offset=-2 / threads=12 / lookahead_threads=2 / sliced_threads=0 / nr=0 / decimate=0 / interlaced=0 / bluray_compat=0 / constrained_intra=0 / bframes=3 / b_pyramid=1 / b_adapt=2 / b_bias=0 / direct=3 / weightb=1 / open_gop=0 / weightp=2 / keyint=240 / keyint_min=23 / scenecut=40 / intra_refresh=0 / rc_lookahead=50 / rc=2pass / mbtree=1 / bitrate=1800 / ratetol=1.0 / qcomp=0.60 / qpmin=0 / qpmax=69 / qpstep=4 / cplxblur=20.0 / qblur=0.5 / vbv_maxrate=10000 / vbv_bufsize=10000 / nal_hrd=none / filler=0 / ip_ratio=1.40 / aq=1:1.00
Encoded date                             : UTC 2016-08-19 12:53:08
Tagged date                              : UTC 2016-08-19 12:59:57
Color range                              : Limited
Matrix coefficients                      : BT.709
Menus                                    : 6

Audio #1
ID                                       : 2
Format                                   : AAC
Format/Info                              : Advanced Audio Codec
Format profile                           : LC
Codec ID                                 : 40
Duration                                 : 2h 12mn
Source duration                          : 2h 12mn
Bit rate mode                            : Variable
Bit rate                                 : 128 Kbps
Maximum bit rate                         : 132 Kbps
Channel(s)                               : 2 channels
Channel positions                        : Front: L R
Sampling rate                            : 48.0 KHz
Frame rate                               : 46.875 fps (1024 spf)
Compression mode                         : Lossy
Stream size                              : 121 MiB (6%)
Source stream size                       : 121 MiB (6%)
Language                                 : Russian
Default                                  : Yes
Alternate group                          : 1
Encoded date                             : UTC 2016-08-19 12:53:08
Tagged date                              : UTC 2016-08-19 12:59:57

Audio #2
ID                                       : 3
Format                                   : AAC
Format/Info                              : Advanced Audio Codec
Format profile                           : LC
Codec ID                                 : 40
Duration                                 : 2h 12mn
Source duration                          : 2h 12mn
Bit rate mode                            : Variable
Bit rate                                 : 128 Kbps
Maximum bit rate                         : 132 Kbps
Channel(s)                               : 2 channels
Channel positions                        : Front: L R
Sampling rate                            : 48.0 KHz
Frame rate                               : 46.875 fps (1024 spf)
Compression mode                         : Lossy
Stream size                              : 121 MiB (6%)
Source stream size                       : 121 MiB (6%)
Language                                 : English
Default                                  : No
Alternate group                          : 1
Encoded date                             : UTC 2016-08-19 12:53:08
Tagged date                              : UTC 2016-08-19 12:59:57

Text #1
ID                                       : 4
Format                                   : Timed Text
Muxing mode                              : sbtl
Codec ID                                 : tx3g
Duration                                 : 2h 8mn
Bit rate mode                            : Variable
Bit rate                                 : 81 bps
Stream size                              : 76.7 KiB (0%)
Language                                 : Russian
Default                                  : Yes
Forced                                   : No
Alternate group                          : 2
Encoded date                             : UTC 2016-08-19 12:53:08
Tagged date                              : UTC 2016-08-19 12:59:57

Text #2
ID                                       : 5
Format                                   : Timed Text
Muxing mode                              : sbtl
Codec ID                                 : tx3g
Duration                                 : 2h 7mn
Bit rate mode                            : Variable
Bit rate                                 : 45 bps
Stream size                              : 42.4 KiB (0%)
Language                                 : English
Default                                  : No
Forced                                   : No
Alternate group                          : 2
Encoded date                             : UTC 2016-08-19 12:53:08
Tagged date                              : UTC 2016-08-19 12:59:57

Menu
ID                                       : 6
Codec ID                                 : text
Duration                                 : 2h 12mn
Language                                 : English
Encoded date                             : UTC 2016-08-19 12:59:57
Tagged date                              : UTC 2016-08-19 12:59:57
Menu For                                 : 1
00:00:00.000                             : Overature
00:01:41.518                             : Main Title
00:08:50.905                             : Klingon Battle
00:11:49.289                             : Vulcan
00:20:46.203                             : Starfleet Headquarters
00:25:12.969                             : The New Enterprise
00:28:01.179                             : Welcome Aboard
00:31:31.222                             : Transporter Malfunction
00:38:02.822                             : Mission Briefing
00:44:36.382                             : The Navigator Ilia
00:48:07.759                             : Friends Reunited
00:55:28.283                             : Ready for Departure
01:01:15.380                             : The Wormhole
01:12:20.627                             : Decker Speaks Freely
01:17:28.852                             : Spock's Arrival
01:21:55.201                             : Warp Speed
01:27:21.319                             : Red Alert
01:38:14.220                             : The Intruder Communicates
01:46:18.205                             : Entering the Cloud
01:51:56.918                             : The Alien Vessel
02:08:36.250                             : Plasma Probe
Bit rate mode                            : VBR


Скриншоты:


Время раздачи: 24/7 (круглосуточно) (до появления первых 3-5 скачавших)
 
Не забывайте говорить Спасибо. Не уходите с раздачи!   
Торрент: Зарегистрирован [26 ноя 2016, 22:11] Для скачивания .torrent
необходима регистрация
Или скачать с помощью
MediaGet
Статус:
Проверен
 
.torrent скачан: 0 раз
Хэш: 9ccfe2f24d8f3c2592e88705fe9a00fab8b7e7cf
Размер: 1.9 ГБ (2 043 346 823 байт)
Стать Автором раздачи
 
 
Раздал: 100 ГБ
Скачал: 0 байт
Ратио: Seed.
Сообщения: 94068
Зарегистрирован: 09 апр 2015, 22:31


  • Похожие торренты
    Ответы
    Просмотры
    Последнее сообщение

Вернуться в Видео для мобильных устройств

Ресурс не предоставляет электронные версии произведений, а занимается лишь коллекционированием и каталогизацией ссылок, присылаемых и публикуемых на форуме нашими читателями. Если вы являетесь правообладателем какого-либо представленного материала и не желаете чтобы ссылка на него находилась в нашем каталоге, свяжитесь с нами и мы незамедлительно удалим её. Файлы для обмена на трекере предоставлены пользователями сайта, и администрация не несёт ответственности за их содержание. Просьба не заливать файлы, защищенные авторскими правами, а также файлы нелегального содержания!
cron