Азорские острова. Часть 2: Киты, вулканы, открыватели / Azores 3D: Explorers, Whales & Vulcanos (2011) BDRip3D [H.264/1080p][вертикальная анаморфная стереопара]

 
 Статистика раздачи 
Размер: 5.39 ГБ   |  Зарегистрирован: 26 ноя 2016, 21:07   |   .torrent скачан: 0 раз
Сидеров: 1  [ 0 байт/сек ]     Личеров: 0  [ 0 байт/сек ]  
  

Азорские острова. Часть 2: Киты, вулканы, открыватели / Azores 3D: Explorers, Whales & Vulcanos (2011) BDRip3D [H.264/1080p][вертикальная анаморфная стереопара]

Сообщение explosiveone » 26 ноя 2016, 21:07

Азорские острова. Часть 2: Киты, вулканы, открыватели / Azores 3D: Explorers, Whales & Vulcanos (2011) BDRip 3D

Телекомпания: NEW KSM
Жанр: Документальный, Видовой

Страна: Германия

Описание:
Азорские острова долго оставались затерянным уголком в середине Атлантики. Здесь останавливались суда на пути в Америку, чтобы пополнить запасы. Долгое время Азоры были популярны благодаря процветающей здесь охоте на китов, но когда в 1980 году охота была запрещена, острова вновь погрузились в более чем вековой сон. Именно благодаря этому они остались последним нетронутым уголком дикой природы в Европе. Второй фильм из серии «Азоры 3D» рассказывает удивительные истории и мифы, таящиеся в древних вулканах, показывает живописные деревушки, знакомит с прекрасной природой Азор. Не пропустите это увлекательное знакомство с последним райским уголком Старого Света.

Продолжительность: 00:53:56
Качество видео: BDRip
Перевод: Дублированный
Язык субтитров: русский
Вид субтитров: Вшитые, отключаемые

Видео: AVC/H.264, 1920x1080, ~12700 kbps
Аудио #1: AC3, 6 ch, 640 kbps, CBR - русский
Аудио #2: AC3, 6 ch, 640 kbps, CBR - английский
Код: Выделить всё
Format                                   : Matroska
Format version                           : Version 4 / Version 2
File size                                : 5.39 GiB
Duration                                 : 53mn 56s
Overall bit rate mode                    : Variable
Overall bit rate                         : 14.3 Mbps
Movie name                               : AZOREN_DISC_2.Title3
Encoded date                             : UTC 2016-11-26 17:55:05
Writing application                      : mkvmerge v8.3.0 ('Over the Horizon') 64bit
Writing library                          : libebml v1.3.1 + libmatroska v1.4.2

Video
ID                                       : 1
Format                                   : AVC
Format/Info                              : Advanced Video Codec
Format profile                           :
Format settings, CABAC                   : Yes
Format settings, GOP                     : M=3, N=24
Codec ID                                 : V_MPEG4/ISO/AVC
Duration                                 : 53mn 56s
Bit rate mode                            : Variable
Bit rate                                 : 12.7 Mbps
Width                                    : 1 920 pixels
Height                                   : 1 080 pixels
Display aspect ratio                     : 16:9
Frame rate mode                          : Constant
Frame rate                               : 23.976 fps
Color space                              : YUV
Chroma subsampling                       : 4:2:0
Bit depth                                : 8 bits
Scan type                                : Progressive
Bits/(Pixel*Frame)                       : 0.256
Stream size                              : 4.80 GiB (89%)
Default                                  : Yes
Forced                                   : No
Color primaries                          : BT.709
Transfer characteristics                 : BT.709
Matrix coefficients                      : BT.709

Audio #1
ID                                       : 2
Format                                   : AC-3
Format/Info                              : Audio Coding 3
Mode extension                           : CM (complete main)
Format settings, Endianness              : Big
Codec ID                                 : A_AC3
Duration                                 : 53mn 56s
Bit rate mode                            : Constant
Bit rate                                 : 640 Kbps
Channel(s)                               : 6 channels
Channel positions                        : Front: L C R, Side: L R, LFE
Sampling rate                            : 48.0 KHz
Bit depth                                : 16 bits
Compression mode                         : Lossy
Stream size                              : 247 MiB (4%)
Language                                 : Russian
Default                                  : Yes
Forced                                   : No

Audio #2
ID                                       : 3
Format                                   : AC-3
Format/Info                              : Audio Coding 3
Mode extension                           : CM (complete main)
Format settings, Endianness              : Big
Codec ID                                 : A_AC3
Duration                                 : 53mn 56s
Bit rate mode                            : Constant
Bit rate                                 : 640 Kbps
Channel(s)                               : 6 channels
Channel positions                        : Front: L C R, Side: L R, LFE
Sampling rate                            : 48.0 KHz
Bit depth                                : 16 bits
Compression mode                         : Lossy
Stream size                              : 247 MiB (4%)
Language                                 : English
Default                                  : No
Forced                                   : No

Text
ID                                       : 4
Format                                   : PGS
Muxing mode                              : zlib
Codec ID                                 : S_HDMV/PGS
Language                                 : Russian
Default                                  : No
Forced                                   : No

Скриншоты:



Азорские острова на нашем трекере
Время раздачи: 24/7 (до появления первых 3-5 скачавших)
 
Не забывайте говорить Спасибо. Не уходите с раздачи!   
Торрент: Зарегистрирован [26 ноя 2016, 21:07] Для скачивания .torrent
необходима регистрация
Или скачать с помощью
MediaGet
Статус:
Проверен
 
.torrent скачан: 0 раз
Хэш: d7f3d3259edeaeda6c119be77880d1dc96868d75
Размер: 5.39 ГБ (5 782 624 343 байт)
Стать Автором раздачи
 
 
Раздал: 100 ГБ
Скачал: 0 байт
Ратио: Seed.
Сообщения: 82289
Зарегистрирован: 09 апр 2015, 22:31


  • Похожие торренты
    Ответы
    Просмотры
    Последнее сообщение

Вернуться в Флора и фауна (видео)

Кто сейчас на конференции

Сейчас эту тему просматривают: нет зарегистрированных пользователей и гости: 1

Ресурс не предоставляет электронные версии произведений, а занимается лишь коллекционированием и каталогизацией ссылок, присылаемых и публикуемых на форуме нашими читателями. Если вы являетесь правообладателем какого-либо представленного материала и не желаете чтобы ссылка на него находилась в нашем каталоге, свяжитесь с нами и мы незамедлительно удалим её. Файлы для обмена на трекере предоставлены пользователями сайта, и администрация не несёт ответственности за их содержание. Просьба не заливать файлы, защищенные авторскими правами, а также файлы нелегального содержания!