Телохранитель / The Bodyguard (2016) HDRip [H.264] [MP4|1024x428]

 
 Статистика раздачи 
Размер: 1.47 ГБ   |  Зарегистрирован: 26 ноя 2016, 18:53   |   .torrent скачан: 4 раз
Сидеров: 1  [ 0 байт/сек ]     Личеров: 0  [ 0 байт/сек ]  
  

Телохранитель / The Bodyguard (2016) HDRip [H.264] [MP4|1024x428]

Сообщение explosiveone » 26 ноя 2016, 18:53

Телохранитель / The Bodyguard (2016) HDRip


Производство: Китай
Жанр: Боевик

Режиссер: Юэ Сун
Актеры: Юэ Сун, Син Юй, Уай-Ман Чан, Колин Чоу, Ли Юйфэй

Описание:
Главный герой Ву Лин встаёт на тёмный путь во имя мести. Он не простой человек, а наследник древнего, некогда могущественного китайского клана "железные ноги". После смерти главы клана, Ву Лин покинул деревню и приезжает в город на поиски брата. Волею случая он становится телохранителем Фэй Фэй, девушки из богатой семьи, которую хотят похитить. Ву приходится применить все свои навыки и продемонстрировать всё свое мастерство, чтобы выйти на того, кто готов пожертвовать всем во имя успеха. Ву Лин вынужден бороться и противостоять огромному количеству бесчестных негодяев, направляемых тем, кто стоит во главе заговора против города.


Возраст: этот продукт не был классифицирован

Релиз от: NNMClub
Продолжительность: 01:25:24
Качество видео: HDRip
Автор перевода: Misstika, Zakuraeva (фансаб-группа "ФантAsia")
Перевод: Двуголосый закадровый (Ворон & Wenlana)
Вид субтитров: Вшитые отключаемые
Язык субтитров: Русский, Итальянский

Видео: AVC/H.264 (Main@L3.1), 1024x428 (2.40:1), 2200 Кбит/сек
Аудио #1: AAC, 2 канала, 128 Кбит/сек - русский (двуголосый закадровый)
Аудио #2: AAC, 2 канала, 128 Кбит/сек - китайский
Код:
General
Complete name                            : C:\CREATE\264mod1\out\The.Bodyguard.2016.576p.HDRip.AAC.h264.NNMclub.mp4
Format                                   : MPEG-4
Format profile                           : Base Media / Version 2
Codec ID                                 : mp42 (mp42/isom)
File size                                : 1.47 GiB
Duration                                 : 1 h 25 min
Overall bit rate mode                    : Variable
Overall bit rate                         : 2 463 kb/s
Movie name                               : La leggenda del calcio d'acciaio
Performer                                : Yue Song
Director                                 : Yue Song
Actor                                    : 洪金寶 / Yue Song / Xing Yu
Genre                                    : Azione e avventura
ContentType                              : Short Film
Description                              : Dopo la morte del venerato maestro del clan del Calcio dAcciaio, Wu-Lin decide di lasciare il suo
Recorded date                            : 2016-04-01
Encoded date                             : UTC 2016-11-26 12:56:34
Tagged date                              : UTC 2016-11-26 13:02:53
Copyright                                : © 2016 Irresistable Alpha Limited, Edko Films Limited, Focus Films Limited, Good Friends Entertainment Sdn Bhd
Cover                                    : Yes
LongDescription                          : Dopo la morte del venerato maestro del clan del Calcio dAcciaio, Wu-Lin decide di lasciare il suo paese barricato sulle montagne e andare alla ricerca del suo compagno Jiang Li nella citta' di Stonecold. Qui viene arruolato come guardia del corpo della figlia di un ricco magnate, la bella Fei Fei. Quando pero' un gruppo di malviventi guidati proprio dal suo vecchio amico Jiang Li ormai passato al servizio del crimine rapiscono Fei Fei per Wu-Lin la scelta e' obbligata: mettersi alla ricerca della ragazza ad ogni mezzo e ad ogni costo, facendo delle millenarie tecniche di combattimento del clan la piu' spietata arma al servizio di una giustizia divenuta ormai personale.
AppleStoreCountry                        : Italy
AppleStoreCatalogID                      : 1168119633
ContentRating                            : it-movie|T|100|

Video
ID                                       : 1
Format                                   : AVC
Format/Info                              : Advanced Video Codec
Format profile                           :
Format settings, CABAC                   : Yes
Format settings, ReFrames                : 3 frames
Codec ID                                 : avc1
Codec ID/Info                            : Advanced Video Coding
Duration                                 : 1 h 25 min
Bit rate                                 : 2 200 kb/s
Width                                    : 1 024 pixels
Height                                   : 428 pixels
Display aspect ratio                     : 2.40:1
Frame rate mode                          : Constant
Frame rate                               : 25.000 FPS
Color space                              : YUV
Chroma subsampling                       : 4:2:0
Bit depth                                : 8 bits
Scan type                                : Progressive
Bits/(Pixel*Frame)                       : 0.201
Stream size                              : 1.31 GiB (89%)
Writing library                          : x264 core 148 r2721+55 e19946b t_mod_Custom [8-bit@all X86_64]
Encoding settings                        : cabac=1 / ref=3 / deblock=1:-1:-1 / analyse=0x1:0x111 / me=umh / subme=7 / psy=1 / fade_compensate=0.00 / psy_rd=1.00:0.20 / mixed_ref=1 / me_range=32 / chroma_me=1 / trellis=2 / 8x8dct=0 / cqm=0 / deadzone=21,11 / fast_pskip=0 / chroma_qp_offset=-3 / threads=12 / lookahead_threads=2 / sliced_threads=0 / nr=0 / decimate=0 / interlaced=0 / bluray_compat=0 / constrained_intra=0 / fgo=0 / bframes=3 / b_pyramid=1 / b_adapt=2 / b_bias=0 / direct=3 / weightb=1 / open_gop=0 / weightp=2 / keyint=250 / keyint_min=25 / scenecut=38 / intra_refresh=0 / rc_lookahead=50 / rc=2pass / mbtree=1 / bitrate=2200 / ratetol=1.0 / qcomp=0.60 / qpmin=0:0:0 / qpmax=69:69:69 / qpstep=4 / cplxblur=20.0 / qblur=0.5 / vbv_maxrate=10000 / vbv_bufsize=10000 / nal_hrd=none / filler=0 / ip_ratio=1.40 / aq=3:0.90 / aq-sensitivity=10.00 / aq-factor=1.00:1.00:1.00 / aq2=1:0.90 / aq2-sensitivity=15.00 / aq2-factor=1.00:1.00:1.00 / aq3=4:[0.50:0.50]:[0.50:0.50]:[0.50:0.50]:[0.50:0.50] / aq3-sensitivity=10.00 / aq3-factor=[1.00:1.00]:[1.00:1.00]:[1.00:1.00] / aq3-boundary=192:64:24
Encoded date                             : UTC 2016-11-26 12:56:34
Tagged date                              : UTC 2016-11-26 13:01:01
Color range                              : Limited
Color primaries                          : BT.709
Transfer characteristics                 : BT.709
Matrix coefficients                      : BT.709
Menus                                    : 7

Audio #1
ID                                       : 2
Format                                   : AAC
Format/Info                              : Advanced Audio Codec
Format profile                           : LC
Codec ID                                 : 40
Duration                                 : 1 h 25 min
Source duration                          : 1 h 25 min
Bit rate mode                            : Variable
Bit rate                                 : 128 kb/s
Maximum bit rate                         : 135 kb/s
Channel(s)                               : 2 channels
Channel positions                        : Front: L R
Sampling rate                            : 48.0 kHz
Frame rate                               : 46.875 FPS (1024 spf)
Compression mode                         : Lossy
Stream size                              : 78.2 MiB (5%)
Source stream size                       : 78.2 MiB (5%)
Language                                 : Russian
Default                                  : Yes
Alternate group                          : 1
Encoded date                             : UTC 2016-11-26 12:56:34
Tagged date                              : UTC 2016-11-26 13:01:01

Audio #2
ID                                       : 3
Format                                   : AAC
Format/Info                              : Advanced Audio Codec
Format profile                           : LC
Codec ID                                 : 40
Duration                                 : 1 h 25 min
Source duration                          : 1 h 25 min
Bit rate mode                            : Variable
Bit rate                                 : 128 kb/s
Maximum bit rate                         : 133 kb/s
Channel(s)                               : 2 channels
Channel positions                        : Front: L R
Sampling rate                            : 48.0 kHz
Frame rate                               : 46.875 FPS (1024 spf)
Compression mode                         : Lossy
Stream size                              : 78.2 MiB (5%)
Source stream size                       : 78.2 MiB (5%)
Language                                 : Chinese
Default                                  : No
Alternate group                          : 1
Encoded date                             : UTC 2016-11-26 12:56:34
Tagged date                              : UTC 2016-11-26 13:01:01

Text #1
ID                                       : 4
Format                                   : Timed Text
Muxing mode                              : sbtl
Codec ID                                 : tx3g
Duration                                 : 1 h 21 min
Bit rate mode                            : Variable
Bit rate                                 : 41 b/s
Stream size                              : 24.5 KiB (0%)
Language                                 : Russian
Default                                  : Yes
Forced                                   : No
Alternate group                          : 2
Encoded date                             : UTC 2016-11-26 12:56:34
Tagged date                              : UTC 2016-11-26 13:01:01

Text #2
ID                                       : 5
Format                                   : Timed Text
Muxing mode                              : sbtl
Codec ID                                 : tx3g
Duration                                 : 2 min 13 s
Bit rate mode                            : Variable
Bit rate                                 : 9 b/s
Stream size                              : 154 Bytes (0%)
Language                                 : Russian
Default                                  : No
Forced                                   : No
Alternate group                          : 2
Encoded date                             : UTC 2016-11-26 12:56:34
Tagged date                              : UTC 2016-11-26 13:01:01

Text #3
ID                                       : 6
Format                                   : Timed Text
Muxing mode                              : sbtl
Codec ID                                 : tx3g
Duration                                 : 1 h 20 min
Bit rate mode                            : Variable
Bit rate                                 : 20 b/s
Stream size                              : 11.8 KiB (0%)
Language                                 : Italian
Default                                  : No
Forced                                   : No
Alternate group                          : 2
Encoded date                             : UTC 2016-11-26 12:56:34
Tagged date                              : UTC 2016-11-26 13:01:01

Menu
ID                                       : 7
Codec ID                                 : text
Duration                                 : 1 h 25 min
Language                                 : English
Encoded date                             : UTC 2016-11-26 13:01:01
Tagged date                              : UTC 2016-11-26 13:01:01
Bit rate mode                            : CBR
Menu For                                 : 1
00:00:00.000                             : 00:00:00.000
00:06:37.360                             : 00:06:37.360
00:13:54.400                             : 00:13:54.400
00:21:32.480                             : 00:21:32.480
00:28:11.280                             : 00:28:11.280
00:34:49.800                             : 00:34:49.800
00:42:00.040                             : 00:42:00.040
00:49:00.000                             : 00:49:00.000
00:55:18.840                             : 00:55:18.840
01:00:49.840                             : 01:00:49.840
01:11:14.000                             : 01:11:14.000
01:21:47.200                             : 01:21:47.200


Скриншоты:



Время раздачи: 24/7 (круглосуточно) (до появления первых 3-5 скачавших)
 
Не забывайте говорить Спасибо. Не уходите с раздачи!   
Торрент: Зарегистрирован [26 ноя 2016, 18:53] Для скачивания .torrent
необходима регистрация
Или скачать с помощью
MediaGet
Статус:
Проверен
 
.torrent скачан: 4 раз
Хэш: 65de468bed7074f4d3b2e4bb78382f1a62aa48a3
Размер: 1.47 ГБ (1 577 691 401 байт)
Стать Автором раздачи
 
 
Раздал: 100 ГБ
Скачал: 0 байт
Ратио: Seed.
Сообщения: 94068
Зарегистрирован: 09 апр 2015, 22:31


  • Похожие торренты
    Ответы
    Просмотры
    Последнее сообщение

Вернуться в Видео для мобильных устройств

Ресурс не предоставляет электронные версии произведений, а занимается лишь коллекционированием и каталогизацией ссылок, присылаемых и публикуемых на форуме нашими читателями. Если вы являетесь правообладателем какого-либо представленного материала и не желаете чтобы ссылка на него находилась в нашем каталоге, свяжитесь с нами и мы незамедлительно удалим её. Файлы для обмена на трекере предоставлены пользователями сайта, и администрация не несёт ответственности за их содержание. Просьба не заливать файлы, защищенные авторскими правами, а также файлы нелегального содержания!
cron