Азорские острова. Часть 1: Акулы, киты и вулканы / Azores 3D: Explorers, Whales & Vulcanos (2011) BDRip3D [H.264/1080p][вертикальная анаморфная стереопара]

 
 Статистика раздачи 
Размер: 6.45 ГБ   |  Зарегистрирован: 26 ноя 2016, 18:50   |   .torrent скачан: 0 раз
Сидеров: 1  [ 0 байт/сек ]     Личеров: 0  [ 0 байт/сек ]  
  

Азорские острова. Часть 1: Акулы, киты и вулканы / Azores 3D: Explorers, Whales & Vulcanos (2011) BDRip3D [H.264/1080p][вертикальная анаморфная стереопара]

Сообщение explosiveone » 26 ноя 2016, 18:50

Азорские острова. Часть 1: Акулы, киты и вулканы / Azores 3D: Explorers, Whales & Vulcanos (2011) BDRip 3D

Телекомпания: NEW KSM
Жанр: Документальный, Видовой

Страна: Германия

Описание:
Фильм рассказывает об удивительных фактах флоры и фауны уникальных Азорских островов и отправляет зрителя в путешествие по местам отдыха акул, китов, гигантских морских скатов и огромных стай всевозможных рыб. Архипелаг, состоящий из семи островов в середине Атлантического океана, на полпути между континентами Европы и Америки, завораживает уникальным пейзажем, сочетающим черноту застывшей лавы, синеву озер, заполнивших кратеры вулканов и буйство красок экзотических растений. Азоры - это настоящий рай для любителей дайвинга и последний нетронутый уголок Европы.

Продолжительность: 00:52:26
Качество видео: BDRip
Перевод: Дублированный
Язык субтитров: русский
Вид субтитров: Вшитые, отключаемые

Видео: AVC/H.264, 1920x1080, ~16000 kbps
Аудио #1: AC3, 6 ch, 640 kbps, CBR - русский
Аудио #2: AC3, 6 ch, 640 kbps, CBR - английский
Код: Выделить всё
Format                                   : Matroska
Format version                           : Version 4 / Version 2
File size                                : 6.45 GiB
Duration                                 : 52mn 26s
Overall bit rate mode                    : Variable
Overall bit rate                         : 17.6 Mbps
Movie name                               : AZOREN_DISC_1.Title3
Encoded date                             : UTC 2016-11-26 13:41:39
Writing application                      : mkvmerge v8.3.0 ('Over the Horizon') 64bit
Writing library                          : libebml v1.3.1 + libmatroska v1.4.2

Video
ID                                       : 1
Format                                   : AVC
Format/Info                              : Advanced Video Codec
Format profile                           :
Format settings, CABAC                   : Yes
Format settings, GOP                     : M=3, N=24
Codec ID                                 : V_MPEG4/ISO/AVC
Duration                                 : 52mn 26s
Bit rate mode                            : Variable
Bit rate                                 : 16.0 Mbps
Width                                    : 1 920 pixels
Height                                   : 1 080 pixels
Display aspect ratio                     : 16:9
Frame rate mode                          : Constant
Frame rate                               : 23.976 fps
Color space                              : YUV
Chroma subsampling                       : 4:2:0
Bit depth                                : 8 bits
Scan type                                : Progressive
Bits/(Pixel*Frame)                       : 0.321
Stream size                              : 5.85 GiB (91%)
Default                                  : Yes
Forced                                   : No
Color primaries                          : BT.709
Transfer characteristics                 : BT.709
Matrix coefficients                      : BT.709

Audio #1
ID                                       : 2
Format                                   : AC-3
Format/Info                              : Audio Coding 3
Mode extension                           : CM (complete main)
Format settings, Endianness              : Big
Codec ID                                 : A_AC3
Duration                                 : 52mn 26s
Bit rate mode                            : Constant
Bit rate                                 : 640 Kbps
Channel(s)                               : 6 channels
Channel positions                        : Front: L C R, Side: L R, LFE
Sampling rate                            : 48.0 KHz
Bit depth                                : 16 bits
Compression mode                         : Lossy
Stream size                              : 240 MiB (4%)
Language                                 : Russian
Default                                  : Yes
Forced                                   : No

Audio #2
ID                                       : 3
Format                                   : AC-3
Format/Info                              : Audio Coding 3
Mode extension                           : CM (complete main)
Format settings, Endianness              : Big
Codec ID                                 : A_AC3
Duration                                 : 52mn 26s
Bit rate mode                            : Constant
Bit rate                                 : 640 Kbps
Channel(s)                               : 6 channels
Channel positions                        : Front: L C R, Side: L R, LFE
Sampling rate                            : 48.0 KHz
Bit depth                                : 16 bits
Compression mode                         : Lossy
Stream size                              : 240 MiB (4%)
Language                                 : English
Default                                  : No
Forced                                   : No

Text
ID                                       : 4
Format                                   : PGS
Muxing mode                              : zlib
Codec ID                                 : S_HDMV/PGS
Language                                 : Russian
Default                                  : No
Forced                                   : No

Скриншоты:



Азорские острова на нашем трекере
Время раздачи: 24/7 (до появления первых 3-5 скачавших)
 
Не забывайте говорить Спасибо. Не уходите с раздачи!   
Торрент: Зарегистрирован [26 ноя 2016, 18:50] Для скачивания .torrent
необходима регистрация
Или скачать с помощью
MediaGet
Статус:
Проверен
 
.torrent скачан: 0 раз
Хэш: a7c3816d57c4a411a8d1baa0b80781169ebe621d
Размер: 6.45 ГБ (6 926 164 523 байт)
Стать Автором раздачи
 
 
Раздал: 100 ГБ
Скачал: 0 байт
Ратио: Seed.
Сообщения: 82288
Зарегистрирован: 09 апр 2015, 22:31


  • Похожие торренты
    Ответы
    Просмотры
    Последнее сообщение

Вернуться в Флора и фауна (видео)

Кто сейчас на конференции

Сейчас эту тему просматривают: нет зарегистрированных пользователей и гости: 1

Ресурс не предоставляет электронные версии произведений, а занимается лишь коллекционированием и каталогизацией ссылок, присылаемых и публикуемых на форуме нашими читателями. Если вы являетесь правообладателем какого-либо представленного материала и не желаете чтобы ссылка на него находилась в нашем каталоге, свяжитесь с нами и мы незамедлительно удалим её. Файлы для обмена на трекере предоставлены пользователями сайта, и администрация не несёт ответственности за их содержание. Просьба не заливать файлы, защищенные авторскими правами, а также файлы нелегального содержания!