Затопление «Бельграно» / The Sinking of the Belgrano (2004) DVB

 
 Статистика раздачи 
Размер: 1019.18 МБ   |  Зарегистрирован: 26 ноя 2016, 12:42   |   .torrent скачан: 1 раз
Сидеров: 1  [ 0 байт/сек ]     Личеров: 0  [ 0 байт/сек ]  
  

Затопление «Бельграно» / The Sinking of the Belgrano (2004) DVB

Сообщение explosiveone » 26 ноя 2016, 12:42

Затопление «Бельграно» / The Sinking of the Belgrano (2004) DVB

Телекомпания: Великобритания, National Geographic
Жанр: Документальный, История

Участники: Режиссер и сценарист: Патрик Прентис

Описание:
2 мая 1982 в холодных водах Южной Атлантики произошло жестокое столкновение военных интересов двух держав: Великобритании и Аргентины. В результате борьбы за Фолклендские острова здесь произошла катастрофа, сравнимая с гибелью «Титаника». Английская подлодка выпустила торпеду, и гордость аргентинского флота крейсер «Генерал Бельграно» за считанные минуты ушел под воду. Из тысячи человек команды корабля погибла треть. Этот день был объявлен траурным в обоих государствах. Спустя 20 лет бывшие враги встретятся на месте трагедии, чтобы найти останки корабля и восстановить события последних минут «Генерала Бельграно». Кто отдал смертоносный приказ? И почему команда крейсера оказалась не готова к столкновению?

Продолжительность: 00:53:03
Качество видео: DVB
Перевод: Двуголосый закадровый, профессиональный

Видео: MPEG-2, 704х576@768x576, ~2441 kbps
Аудио: MP2, 2 ch, 192 Kbps, CBR
Код: Выделить всё
Общее
Полное имя                               : THE SINKING OF THE BELGRANO.mpg
Формат                                   : MPEG-PS
Размер файла                             : 1019 Мбайт
Продолжительность                        : 53 м.
Режим общего битрейта                    : Переменный
Общий поток                              : 2686 Кбит/сек

Видео
Идентификатор                            : 224 (0xE0)
Формат                                   : MPEG Video
Версия формата                           : Version 2
Профиль формата                          : Main@Main
Параметр BVOP формата                    : Да
Параметр матрицы формата                 : Выборочная
Параметр GOP формата                     : Variable
Продолжительность                        : 53 м.
Вид битрейта                             : Переменный
Битрейт                                  : 2441 Кбит/сек
Максимальный битрейт                     : 6000 Кбит/сек
Ширина                                   : 704 пикселя
Высота                                   : 576 пикселей
Соотношение сторон                       : 4:3
Частота кадров                           : 25,000 кадров/сек
Стандарт вещания                         : PAL
Цветовое пространство                    : YUV
Субдискретизация насыщенности            : 4:2:0
Битовая глубина                          : 8 бит
Метод сжатия                             : С потерями
Бит/(Пиксели*Кадры)                      : 0.241
Временной код первого кадра              : 00:00:00:00
Оригинал временного кода                 : Group of pictures header
Размер потока                            : 926 Мбайт (91%)

Аудио
Идентификатор                            : 192 (0xC0)
Формат                                   : MPEG Audio
Версия формата                           : Version 1
Профиль формата                          : Layer 2
Продолжительность                        : 53 м.
Вид битрейта                             : Постоянный
Битрейт                                  : 192 Кбит/сек
Каналы                                   : 2 канала
Частота                                  : 48,0 КГц
Метод сжатия                             : С потерями
Размер потока                            : 72,9 Мбайт (7%)

Меню

Скриншоты:




Время раздачи: Пн-Пт с 18:00 до 22:00 (до появления первых 3-5 скачавших)
 
Не забывайте говорить Спасибо. Не уходите с раздачи!   
Торрент: Зарегистрирован [26 ноя 2016, 12:42] Для скачивания .torrent
необходима регистрация
Или скачать с помощью
MediaGet
Статус:
Проверен
 
.torrent скачан: 1 раз
Хэш: a5b14431fe04ec23a34a07a770dedd98a28bdcd5
Размер: 1019.18 МБ (1 068 691 456 байт)
Стать Автором раздачи
 
 
Раздал: 100 ГБ
Скачал: 0 байт
Ратио: Seed.
Сообщения: 93392
Зарегистрирован: 09 апр 2015, 22:31


  • Похожие торренты
    Ответы
    Просмотры
    Последнее сообщение

Вернуться в National Geographic

Ресурс не предоставляет электронные версии произведений, а занимается лишь коллекционированием и каталогизацией ссылок, присылаемых и публикуемых на форуме нашими читателями. Если вы являетесь правообладателем какого-либо представленного материала и не желаете чтобы ссылка на него находилась в нашем каталоге, свяжитесь с нами и мы незамедлительно удалим её. Файлы для обмена на трекере предоставлены пользователями сайта, и администрация не несёт ответственности за их содержание. Просьба не заливать файлы, защищенные авторскими правами, а также файлы нелегального содержания!
cron