Чудо на Гудзоне / Miracle of the Hudson Plane Crash (2009) SATRip [Английский]

 
 Статистика раздачи 
Размер: 417.5 МБ   |  Зарегистрирован: 26 ноя 2016, 04:45   |   .torrent скачан: 0 раз
Сидеров: 1  [ 0 байт/сек ]     Личеров: 0  [ 0 байт/сек ]  
  

Чудо на Гудзоне / Miracle of the Hudson Plane Crash (2009) SATRip [Английский]

Сообщение explosiveone » 26 ноя 2016, 04:45

Чудо на Гудзоне / Miracle of the Hudson Plane Crash (2009) SATRip [Английский]

Телекомпания: Discovery
Жанр: Документальный, История
Режиссер: Кристина Баветта, Марк Тайли

Участники: Викки Барнхардт, Джефф Колайджа, Робб Колайджа, Марк Хууд, Чесли Салленбергер, Роберт Родригес, Джанет Мактир и др.

Описание:
Фильм показывает невероятные и разнообразные человеческие истории пассажиров. 15 января 2009 года, 155 человек на борту США Airways рейса 1549 пережили худший кошмар в их жизни. Всего две минуты в полете, стая птиц, поразившая самолет, вырубая оба двигателя. Без сил, капитан Чесли Салленбергер решил, что у него только один вариант: на посадку в реку Гудзон. Чудо на Гудзоне рассказывает поминутный рассказ о тех событиях, от лиц людей переживших это там, включая пассажиров, очевидцев и спасателей, с эксклюзивными интервью и видео.



Продолжительность: 00:47:52
Качество видео: SATRip
Перевод: Отсутствует
Язык: Английский
Язык субтитров: Русский
Вид субтитров: Вшитые

Видео: Xvid, 640x480, ~954 kb/s
Аудио: MP3, 2 ch, 256 kb/s, CBR
Сэмпл: Скачать
Код: Выделить всё
General
Complete name                            : D:\Dowloands\Видео\Chudo.na.Gudzone.SAT-rip.by.Твид.fenixclub.avi
Format                                   : AVI
Format/Info                              : Audio Video Interleave
File size                                : 417 MiB
Duration                                 : 47 min 52 s
Overall bit rate                         : 1 219 kb/s
Writing library                          : VirtualDub build 24463/release

Video
ID                                       : 0
Format                                   : MPEG-4 Visual
Format profile                           : Advanced [email protected]
Format settings, BVOP                    : 2
Format settings, QPel                    : No
Format settings, GMC                     : No warppoints
Format settings, Matrix                  : Default (H.263)
Muxing mode                              : Packed bitstream
Codec ID                                 : XVID
Codec ID/Hint                            : XviD
Duration                                 : 47 min 52 s
Bit rate                                 : 954 kb/s
Width                                    : 640 pixels
Height                                   : 480 pixels
Display aspect ratio                     : 4:3
Frame rate                               : 25.000 FPS
Color space                              : YUV
Chroma subsampling                       : 4:2:0
Bit depth                                : 8 bits
Scan type                                : Progressive
Compression mode                         : Lossy
Bits/(Pixel*Frame)                       : 0.124
Stream size                              : 327 MiB (78%)
Writing library                          : XviD 1.2.1 (UTC 2008-12-04)

Audio
ID                                       : 1
Format                                   : MPEG Audio
Format version                           : Version 1
Format profile                           : Layer 2
Mode extension                           : MS Stereo
Codec ID                                 : 50
Duration                                 : 47 min 52 s
Bit rate mode                            : Constant
Bit rate                                 : 256 kb/s
Channel(s)                               : 2 channels
Sampling rate                            : 48.0 kHz
Compression mode                         : Lossy
Stream size                              : 87.7 MiB (21%)
Alignment                                : Aligned on interleaves
Interleave, duration                     : 40  ms (1.00 video frame)
Interleave, preload duration             : 504  ms

Скриншоты:




Время раздачи: С 18:00 до 00:00 (до появления первых 3-5 скачавших) P.S. Скорость отдачи не превышает 250 кб/с, соответственно просить скорости не стоит.
 
Не забывайте говорить Спасибо. Не уходите с раздачи!   
Торрент: Зарегистрирован [26 ноя 2016, 04:45] Для скачивания .torrent
необходима регистрация
Или скачать с помощью
MediaGet
Статус:
Проверен
 
.torrent скачан: 0 раз
Хэш: f2ffdaf3ac299d7d4de96da71673a4ac41113cc5
Размер: 417.5 МБ (437 775 734 байт)
Стать Автором раздачи
 
 
Раздал: 100 ГБ
Скачал: 0 байт
Ратио: Seed.
Сообщения: 82288
Зарегистрирован: 09 апр 2015, 22:31


  • Похожие торренты
    Ответы
    Просмотры
    Последнее сообщение

Вернуться в Discovery

Кто сейчас на конференции

Сейчас эту тему просматривают: нет зарегистрированных пользователей и гости: 1

Ресурс не предоставляет электронные версии произведений, а занимается лишь коллекционированием и каталогизацией ссылок, присылаемых и публикуемых на форуме нашими читателями. Если вы являетесь правообладателем какого-либо представленного материала и не желаете чтобы ссылка на него находилась в нашем каталоге, свяжитесь с нами и мы незамедлительно удалим её. Файлы для обмена на трекере предоставлены пользователями сайта, и администрация не несёт ответственности за их содержание. Просьба не заливать файлы, защищенные авторскими правами, а также файлы нелегального содержания!