Опыты дилетанта (часть 2, серии 17-35) [2012-2014, Документальный, HDTV 1080i]

 
 Статистика раздачи 
Размер: 26.67 ГБ   |  Зарегистрирован: 23 ноя 2016, 18:47   |   .torrent скачан: 0 раз
Сидеров: 1  [ 0 байт/сек ]     Личеров: 0  [ 0 байт/сек ]  
  

Опыты дилетанта (часть 2, серии 17-35) [2012-2014, Документальный, HDTV 1080i]

Сообщение aLaVodka » 23 ноя 2016, 18:47

Опыты дилетанта (часть 2, серии 17-35)

Год выпуска: 2012-2014
Страна: Россия
Жанр: Документальный
Продолжительность: 19 x 26 минут
Перевод: Не требуется
Описание: Каждый из нас хотя бы раз мечтал испытать ощущение невесомости. Или – поднять в небо воздушный лайнер. Чтобы эта мечта стала реальностью, нужны годы обучения, изнуряющие тренировки и незаурядные способности. Уникальная возможность на время оказаться в необычной роли предоставлена автору и ведущему Александру Коневичу. На собственном опыте он познает все трудности и радости интересных профессий и поделится своими ощущениями.

Список серий:
17. Опыты дилетанта. Вставай на лыжи!
18. Опыты дилетанта. Граффити. Раскрашивая жизнь
19. Опыты дилетанта. Историческая реконструкция. Битва мастеров
20. Опыты дилетанта. Кайтсёрфинг
21. Опыты дилетанта. Космическое выживание. Лето
22. Опыты дилетанта. Космическое выживание. Зима
23. Опыты дилетанта. Лёд тронулся!
24. Опыты дилетанта. Мусорщик
25. Опыты дилетанта. Повар
26. Опыты дилетанта. Подготовка пилотов
27. Опыты дилетанта. Профессия - Каскадёр
28. Опыты дилетанта. Санитарная авиация. Ямал
29. Опыты дилетанта. Скейтбординг. Свои в доску
30. Опыты дилетанта. Танки в городе
31. Опыты дилетанта. Утилизируй это!
32. Опыты дилетанта. Фокусник
33. Опыты дилетанта. Человек из прошлого
34. Опыты дилетанта. Экстремальное вождение
35. Опыты дилетанта. Под одним крылом

Предыдущие серии:
Доп. информация: IPTV Remux (запись потока без перекодирования)

Тип релиза: HDTV 1080i
Контейнер: TS

Видео: AVC H.264, 1920x1080i (16:9), 25 fps, 7297 kbps , 0.141 bits/pixel
Аудио: MPEG Audio, 2 channels, 192 kbps, 48KHz
Код: Выделить всё
General
ID                                       : 1 (0x1)
Complete name                            : 17. Опыты дилетанта. Вставай на лыжи!.ts
Format                                   : MPEG-TS
File size                                : 1.44 GiB
Duration                                 : 26mn 8s
Overall bit rate mode                    : Variable
Overall bit rate                         : 7 880 Kbps

Video
ID                                       : 69 (0x45)
Menu ID                                  : 1 (0x1)
Format                                   : AVC
Format/Info                              : Advanced Video Codec
Format profile                           : High@L4.0
Format settings, CABAC                   : Yes
Format settings, ReFrames                : 4 frames
Codec ID                                 : 27
Duration                                 : 26mn 8s
Bit rate                                 : 7 297 Kbps
Width                                    : 1 920 pixels
Height                                   : 1 080 pixels
Display aspect ratio                     : 16:9
Frame rate                               : 25.000 fps
Color space                              : YUV
Chroma subsampling                       : 4:2:0
Bit depth                                : 8 bits
Scan type                                : MBAFF
Bits/(Pixel*Frame)                       : 0.141
Stream size                              : 1.33 GiB (93%)

Audio
ID                                       : 68 (0x44)
Menu ID                                  : 1 (0x1)
Format                                   : MPEG Audio
Format version                           : Version 1
Format profile                           : Layer 2
Mode                                     : Joint stereo
Mode extension                           : Intensity Stereo + MS Stereo
Codec ID                                 : 3
Duration                                 : 26mn 8s
Bit rate mode                            : Constant
Bit rate                                 : 192 Kbps
Channel(s)                               : 2 channels
Sampling rate                            : 48.0 KHz
Compression mode                         : Lossy
Stream size                              : 35.9 MiB (2%)
Language                                 : English
 
Не забывайте говорить Спасибо. Не уходите с раздачи!   
Торрент: Зарегистрирован [23 ноя 2016, 18:47] Для скачивания .torrent
необходима регистрация
Или скачать с помощью
MediaGet
Статус:
Проверен
 
.torrent скачан: 0 раз
Хэш: e3554bbe5ab0701f24a071d2f175a071c681e09a
Размер: 26.67 ГБ (28 641 489 424 байт)
Стать Автором раздачи
 
 
Раздал: 100 ГБ
Скачал: 0 байт
Ратио: Seed.
Сообщения: 188762
Зарегистрирован: 09 апр 2015, 20:00


  • Похожие торренты
    Ответы
    Просмотры
    Последнее сообщение

Вернуться в Естествознание, наука и техника (HD Video)

Ресурс не предоставляет электронные версии произведений, а занимается лишь коллекционированием и каталогизацией ссылок, присылаемых и публикуемых на форуме нашими читателями. Если вы являетесь правообладателем какого-либо представленного материала и не желаете чтобы ссылка на него находилась в нашем каталоге, свяжитесь с нами и мы незамедлительно удалим её. Файлы для обмена на трекере предоставлены пользователями сайта, и администрация не несёт ответственности за их содержание. Просьба не заливать файлы, защищенные авторскими правами, а также файлы нелегального содержания!
cron