«Как нас зомбируют? Секты XXI века» [РЕН ТВ 23.09.2016] (Игорь Прокопенко) [2016, Документальный спецпроект, SATRip]

 
 Статистика раздачи 
Размер: 14.11 КБ   |  Зарегистрирован: 22 ноя 2016, 17:57   |   .torrent скачан: 0 раз
Сидеров: 1  [ 0 байт/сек ]     Личеров: 0  [ 0 байт/сек ]  
  

«Как нас зомбируют? Секты XXI века» [РЕН ТВ 23.09.2016] (Игорь Прокопенко) [2016, Документальный спецпроект, SATRip]

Сообщение aLaVodka » 22 ноя 2016, 17:57

«Как нас зомбируют? Секты XXI века»
«Оружие религиозного поражения»

Премьера на канале РЕН ТВ!

Год выпуска: 2016 г.
Страна: Россия
Жанр: Документальный спецпроект
Продолжительность: 1час 38 мин.
Руководитель проекта: Игорь Прокопенко
Режиссер: ...
Перевод: Не требуется
Русские субтитры: нет

Описание: Эксперты говорят о потоке проповедников, направляемых западными спецслужбами в разные страны, в том числе, и в Россию, с целью распространения своего влияния. Лжепастыри и профессиональные пророки используют методики «массового помрачения». Что это такое и какие формы принимает сектантство в наше время? Кто превращают людей в зомби и чем объяснить тоталитарный контроль, которым обладают секты?

Релиз группы:
Релиз группы:

Качество: SATRip
Формат: AVI
Видео: 720x400 (1.80:1), 25 fps, XviD ~1868 kbps, 0.27 bit/pixel
Аудио: 48 kHz, MPEG Layer 3, 2 ch, ~128 kbps avg
Общее
Полное имя : F:\Torrents\Kak_nas_zombirujut_-Sekty_XXI_veka(REN_TV)-23.09.2016_[rutracker.org].avi
Формат : AVI
Формат/Информация : Audio Video Interleave
Размер файла : 1,37 Гбайт
Продолжительность : 1 ч. 37 м.
Общий поток : 2006 Кбит/сек
Программа кодирования : VirtualDubMod 1.6.0.0 SURROUND (build 2560/release)
Библиотека кодирования : VirtualDubMod build 2560/release

Видео
Идентификатор : 0
Формат : MPEG-4 Visual
Профиль формата : Advanced [email protected]
Параметр BVOP формата : 2
Параметр QPel формата : Нет
Параметр GMC формата : Без точки перехода
Параметр матрицы формата : Default (MPEG)
Идентификатор кодека : XVID
Идентификатор кодека/Подсказка : XviD
Продолжительность : 1 ч. 37 м.
Битрейт : 1868 Кбит/сек
Ширина : 720 пикселей
Высота : 400 пикселей
Соотношение сторон : 16:9
Соотношение сторон в оригинале : 16:9
Частота кадров : 25,000 кадров/сек
Цветовое пространство : YUV
Субдискретизация насыщенности : 4:2:0
Битовая глубина : 8 бит
Тип развёртки : Прогрессивная
Метод сжатия : С потерями
Бит/(Пиксели*Кадры) : 0.259
Размер потока : 1,28 Гбайт (93%)
Библиотека кодирования : XviD 1.2.1 (UTC 2008-12-04)

Аудио
Идентификатор : 1
Формат : MPEG Audio
Версия формата : Version 1
Профиль формата : Layer 3
Режим : Joint stereo
Расширение режима : MS Stereo
Идентификатор кодека : 55
Идентификатор кодека/Подсказка : MP3
Продолжительность : 1 ч. 37 м.
Вид битрейта : Постоянный
Битрейт : 128 Кбит/сек
Каналы : 2 канала
Частота : 48,0 КГц
Метод сжатия : С потерями
Размер потока : 89,6 Мбайт (6%)
Выравнивание : Разделение по промежуткам
Продолжительность промежутка : 40 мс. (1,00 видеокадр)
Время предзагрузки промежутка : 500 мс.
Библиотека кодирования : LAME3.99r
Настройки программы : -m j -V 4 -q 3 -lowpass 17 -b 128
Добавил: «Как нас зомбируют? Секты XXI века». (эфир 23.09.2016). Пожалуйста, обновите торрент-файл.

На раздаче по возможности, ~20 Mb/s. > [Что от меня зависит, сделал. Остальное зависит от Вас, трекера и наших провайдеров.]
 
Не забывайте говорить Спасибо. Не уходите с раздачи!   
Торрент: Зарегистрирован [22 ноя 2016, 17:57] Для скачивания .torrent
необходима регистрация
Или скачать с помощью
MediaGet
Статус:
Проверен
 
.torrent скачан: 0 раз
Хэш: 414d0428eb866eadff583c9eef84548115cd36b8
Размер: 14.11 КБ (14 451 байт)
Стать Автором раздачи
 
 
Раздал: 100 ГБ
Скачал: 0 байт
Ратио: Seed.
Сообщения: 183215
Зарегистрирован: 09 апр 2015, 20:00


  • Похожие торренты
    Ответы
    Просмотры
    Последнее сообщение

Вернуться в Внежанровая документалистика

Кто сейчас на конференции

Сейчас эту тему просматривают: нет зарегистрированных пользователей и гости: 1

Ресурс не предоставляет электронные версии произведений, а занимается лишь коллекционированием и каталогизацией ссылок, присылаемых и публикуемых на форуме нашими читателями. Если вы являетесь правообладателем какого-либо представленного материала и не желаете чтобы ссылка на него находилась в нашем каталоге, свяжитесь с нами и мы незамедлительно удалим её. Файлы для обмена на трекере предоставлены пользователями сайта, и администрация не несёт ответственности за их содержание. Просьба не заливать файлы, защищенные авторскими правами, а также файлы нелегального содержания!