Зачинщики / Masterminds (2016) WEB-DLRip [H.264] [MP4|1024x552]

 
 Статистика раздачи 
Размер: 1.35 ГБ   |  Зарегистрирован: 22 ноя 2016, 11:38   |   .torrent скачан: 0 раз
Сидеров: 1  [ 0 байт/сек ]     Личеров: 0  [ 0 байт/сек ]  
  

Зачинщики / Masterminds (2016) WEB-DLRip [H.264] [MP4|1024x552]

Сообщение explosiveone » 22 ноя 2016, 11:38

Зачинщики / Masterminds (2016) WEB-DLRip

«А что бы ты делал с $17 миллионами?»

Производство: США / Broadway Video, Michaels-Goldwyn, Relativity Media
Жанр: Боевик, Комедия, Криминал

Режиссер: Джаред Хесс
Актеры: Виктория Исакова, Петр Скворцов, Александр Горчилин, Юлия Ауг, Александра Ревенко, Антон Васильев, Николай Рощин, Светлана Брагарник, Ирина Рудницкая, Марина Клещева

Описание:
Бывший клерк банка вместе со своей любовницей проворачивает дерзкое ограбление инкассаторской машины и забирает 17 миллионов баксов. Но по неопытности преступники-дебютанты оставляют на месте преступления столько следов и улик, что вряд ли смогут получить удовольствие от добычи.


Возраст: 16+ (зрителям, достигшим 16 лет)
Рейтинг MPAA: PG-13 (детям до 13 лет просмотр нежелателен)

Релиз от: NNMClub
Продолжительность: 01:30:44
Качество видео: WEB-DLRip
Перевод: Дублированный - (iTunes)
Вид субтитров: Отсутствуют

Видео: AVC/H.264 (Main@L3.1), 1024x552 (1.85:1), 2000 Кбит/сек
Аудио #1: AAC, 2 канала, 128 Кбит/сек - русский (дублированный)
Аудио #2: AAC, 2 канала, 128 Кбит/сек - английский
Код:
General
Complete name                            : C:\DGI\Masterminds.2016.576p.WEB-DLRip.AAC.h264.NNMclub.mp4
Format                                   : MPEG-4
Format profile                           : Base Media / Version 2
Codec ID                                 : mp42 (mp42/isom)
File size                                : 1.35 GiB
Duration                                 : 1h 30mn
Overall bit rate mode                    : Variable
Overall bit rate                         : 2 132 Kbps
Movie name                               : Masterminds (2016)
Performer                                : Jared Hess
Director                                 : Jared Hess
Actor                                    : Zach Galifianakis / Owen Wilson / Kristen Wiig / Ken Marino / Jason Sudeikis / Devin Ratray / Jon Daly / Mary Elizabeth Ellis / Kate McKinnon / Leslie Jones
Screenplay by                            : Chris Bowman / Hubbel Palmer / Emily Spivey
Producer                                 : Lorne Michaels / John Goldwyn
Genre                                    : Comedy
ContentType                              : Short Film
Description                              : In this action comedy inspired by true events, directed by Jared Hess (Napoleon Dynamite; Nacho
Recorded date                            : 2016-09-30
Encoded date                             : UTC 2016-11-22 04:31:48
Tagged date                              : UTC 2016-11-22 06:20:35
Copyright                                : © 2016 ARMORED CAR PRODUCTIONS, LLC ALL RIGHTS RESERVED
Cover                                    : Yes
LongDescription                          : In this action comedy inspired by true events, directed by Jared Hess (Napoleon Dynamite; Nacho Libre), David Ghantt (Zach Galifianakis) discovers the true meaning of adventure far beyond his wildest dreams. He is an uncomplicated man stuck in a monotonous life. Day in and day out he drives an armored vehicle, transporting millions of other people’s money with no escape in sight. The only glimmer of excitement is his flirtatious work crush Kelly Campbell (Kristen Wiig) who soon lures him into the scheme of a lifetime. Along with a group of half-brained criminals led by Steve Chambers (Owen Wilson) and an absurdly faulted heist plan, David manages the impossible and makes off with $17 million in cash…only problem is he foolishly hands the money over to this wild group of double crossers and has been set up to take the fall. With the bandits blowing the millions on lavish and ridiculous luxuries, they leave behind a glaring trail of evidence. Now on the lam and in over his head, David must dodge the authorities, evade a hilarious hit man, Mike McKinney (Jason Sudeikis), and try to turn the tables on the ones he trusted most.
AppleStoreCountry                        : United States
AppleStoreCatalogID                      : 1159762255
ContentRating                            : mpaa|PG-13|300|

Video
ID                                       : 1
Format                                   : AVC
Format/Info                              : Advanced Video Codec
Format profile                           :
Format settings, CABAC                   : Yes
Format settings, ReFrames                : 3 frames
Codec ID                                 : avc1
Codec ID/Info                            : Advanced Video Coding
Duration                                 : 1h 30mn
Bit rate                                 : 2 000 Kbps
Width                                    : 1 024 pixels
Height                                   : 552 pixels
Display aspect ratio                     : 1.85:1
Frame rate mode                          : Constant
Frame rate                               : 25.000 fps
Color space                              : YUV
Chroma subsampling                       : 4:2:0
Bit depth                                : 8 bits
Scan type                                : Progressive
Bits/(Pixel*Frame)                       : 0.142
Stream size                              : 1.27 GiB (94%)
Writing library                          : x264 core 148 r2721+55 e19946b t_mod_Custom [8-bit@all X86_64]
Encoding settings                        : cabac=1 / ref=3 / deblock=1:-3:-3 / analyse=0x1:0x111 / me=umh / subme=7 / psy=1 / fade_compensate=0.00 / psy_rd=1.00:0.20 / mixed_ref=0 / me_range=32 / chroma_me=1 / trellis=2 / 8x8dct=0 / cqm=0 / deadzone=21,11 / fast_pskip=0 / chroma_qp_offset=-3 / threads=12 / lookahead_threads=2 / sliced_threads=0 / nr=0 / decimate=0 / interlaced=0 / bluray_compat=0 / constrained_intra=0 / fgo=0 / bframes=2 / b_pyramid=1 / b_adapt=2 / b_bias=0 / direct=3 / weightb=1 / open_gop=0 / weightp=2 / keyint=250 / keyint_min=25 / scenecut=40 / intra_refresh=0 / rc_lookahead=50 / rc=2pass / mbtree=1 / bitrate=2000 / ratetol=1.0 / qcomp=0.60 / qpmin=0:0:0 / qpmax=69:69:69 / qpstep=4 / cplxblur=20.0 / qblur=0.5 / vbv_maxrate=10000 / vbv_bufsize=10000 / nal_hrd=none / filler=0 / ip_ratio=1.40 / aq=3:0.90 / aq-sensitivity=10.00 / aq-factor=1.00:1.00:1.00 / aq2=1:0.80 / aq2-sensitivity=15.00 / aq2-factor=1.00:1.00:1.00 / aq3=4:[0.50:0.50]:[0.50:0.50]:[0.50:0.50]:[0.50:0.50] / aq3-sensitivity=10.00 / aq3-factor=[1.00:1.00]:[1.00:1.00]:[1.00:1.00] / aq3-boundary=192:64:24
Encoded date                             : UTC 2016-11-22 04:31:48
Tagged date                              : UTC 2016-11-22 04:41:41
Color range                              : Limited
Color primaries                          : BT.709
Transfer characteristics                 : BT.709
Matrix coefficients                      : BT.709
Menus                                    : 3

Audio
ID                                       : 2
Format                                   : AAC
Format/Info                              : Advanced Audio Codec
Format profile                           : LC
Codec ID                                 : 40
Duration                                 : 1h 30mn
Source duration                          : 1h 30mn
Bit rate mode                            : Variable
Bit rate                                 : 128 Kbps
Maximum bit rate                         : 131 Kbps
Channel(s)                               : 2 channels
Channel positions                        : Front: L R
Sampling rate                            : 48.0 KHz
Frame rate                               : 46.875 fps (1024 spf)
Compression mode                         : Lossy
Stream size                              : 83.1 MiB (6%)
Source stream size                       : 83.1 MiB (6%)
Language                                 : Russian
Default                                  : Yes
Alternate group                          : 1
Encoded date                             : UTC 2016-11-22 04:31:48
Tagged date                              : UTC 2016-11-22 04:41:41

Menu
ID                                       : 3
Codec ID                                 : text
Duration                                 : 1h 30mn
Language                                 : English
Encoded date                             : UTC 2016-11-22 04:41:41
Tagged date                              : UTC 2016-11-22 04:41:41
Menu For                                 : 1
00:00:00.000                             : 1
00:06:20.000                             : 2
00:12:27.200                             : 3
00:19:46.960                             : 4
00:26:52.880                             : 5
00:32:31.160                             : 6
00:39:10.680                             : 7
00:45:47.320                             : 8
00:51:07.600                             : 9
00:58:37.560                             : 10
01:04:24.520                             : 11
01:10:03.840                             : 12
01:16:06.160                             : 13
Bit rate mode                            : VBR


Скриншоты:



Время раздачи: 24/7 (круглосуточно) (до появления первых 3-5 скачавших)
 
Не забывайте говорить Спасибо. Не уходите с раздачи!   
Торрент: Зарегистрирован [22 ноя 2016, 11:38] Для скачивания .torrent
необходима регистрация
Или скачать с помощью
MediaGet
Статус:
Проверен
 
.torrent скачан: 0 раз
Хэш: 466e95a4406fcc6624164a0c731c883c0692d91a
Размер: 1.35 ГБ (1 451 250 805 байт)
Стать Автором раздачи
 
 
Раздал: 100 ГБ
Скачал: 0 байт
Ратио: Seed.
Сообщения: 94007
Зарегистрирован: 09 апр 2015, 22:31


  • Похожие торренты
    Ответы
    Просмотры
    Последнее сообщение

Вернуться в Видео для мобильных устройств

Ресурс не предоставляет электронные версии произведений, а занимается лишь коллекционированием и каталогизацией ссылок, присылаемых и публикуемых на форуме нашими читателями. Если вы являетесь правообладателем какого-либо представленного материала и не желаете чтобы ссылка на него находилась в нашем каталоге, свяжитесь с нами и мы незамедлительно удалим её. Файлы для обмена на трекере предоставлены пользователями сайта, и администрация не несёт ответственности за их содержание. Просьба не заливать файлы, защищенные авторскими правами, а также файлы нелегального содержания!
cron