Офицер Доун / Officer Downe (2016) WEB-DL [H.264] [MP4|1916x792]

 
 Статистика раздачи 
Размер: 3.38 ГБ   |  Зарегистрирован: 22 ноя 2016, 06:21   |   .torrent скачан: 0 раз
Сидеров: 1  [ 0 байт/сек ]     Личеров: 0  [ 0 байт/сек ]  
  

Офицер Доун / Officer Downe (2016) WEB-DL [H.264] [MP4|1916x792]

Сообщение explosiveone » 22 ноя 2016, 06:21

Офицер Доун / Officer Downe (2016) WEB-DL [H.264/1080p-LQ]

«Some secrets are too big to keep»

Производство: США / Blackmrkt, Living Out Loud Films, Man of Action, Traverse Media
Жанр: Боевик

Режиссер: Шон Крэхан
Актеры: Сэм Уитвер, Лорен Луна Велес, Ким Коутс, Элисон Ломан, Линдсей Палсифер, Джозеф Джулиан Сория, Рено Уилсон, Марк Невелдайн, Тайлер Росс, Ади Шанкар

Описание:
Он полицейский. Он закон. Он очищает улицы Лос-Анджелеса день за днем. Он выполняет свой долг, свою работу. И мешает ему только одно. Фортуна 500. Криминальная группировка, сидящая во главе всего преступного мира в городе. Но наш герой непобедим. Словно птица Феникс, наш герой избегает смерти. И имя этого героя - Торренс Дауни.


Возраст: 18+ (зрителям, достигшим 18 лет. запрещено для детей)

Релиз от: NNMClub
Продолжительность: 01:30:56
Качество видео: WEB-DL
Перевод: Одноголосый закадровый (BadBajo)
Вид субтитров: Вшитые отключаемые
Язык субтитров: Английский

Видео: AVC/H.264 (Main@L4.0), 1916x792 (2.40:1), 4542 Кбит/сек
Аудио #1: AC3, 6 каналов, 384 Кбит/сек - русский (одноголосый закадровый)
Аудио #2: AC3, 6 каналов, 384 Кбит/сек - английский
Код:
General
Complete name                            : C:\CREATE\264mod1\out\Officer.Downe.2016.1080p.WEB-DL.DD5.1.h264.NNMclub.mp4
Format                                   : MPEG-4
Format profile                           : Base Media / Version 2
Codec ID                                 : mp42 (mp42/isom)
File size                                : 3.38 GiB
Duration                                 : 1h 30mn
Overall bit rate mode                    : Variable
Overall bit rate                         : 5 315 Kbps
Movie name                               : Officer Downe
Performer                                : Shawn Crahan
Director                                 : Shawn Crahan
Actor                                    : Alison Lohman / Kim Coates / Sam Witwer
Screenplay by                            : Joe Casey
Producer                                 : Joe Casey / Mark Neveldine / Cole Payne / Skip Williamson
Genre                                    : Action & Adventure
ContentType                              : Short Film
Description                              : In Theaters Now. Officer Downe takes you into a hyper-real Los Angeles for the story of a savage LA
Recorded date                            : 2016-11-18
Encoded date                             : UTC 2016-11-21 19:42:24
Tagged date                              : UTC 2016-11-21 20:03:11
Copyright                                : © 2016 Top Cop Productions LLC
Cover                                    : Yes
LongDescription                          : Same Day As Theaters. Officer Downe takes you into a hyper-real Los Angeles for the story of a savage LA policeman who is repeatedly resurrected and returned to active duty via dark science technology. When a rookie officer is recruited as back up, he discovers there's much more to the titular super-cop than a mindless law enforcement drone warring against a twisted rogues gallery of over-the-top super-villains. From the graphic novel by Joe Casey. Directed by Shawn “Clown” Crahan (Slipknot).
AppleStoreCountry                        : United States
AppleStoreCatalogID                      : 1168236084
ContentRating                            : mpaa|R|400|

Video
ID                                       : 1
Format                                   : AVC
Format/Info                              : Advanced Video Codec
Format profile                           : High@L4
Format settings, CABAC                   : Yes
Format settings, ReFrames                : 5 frames
Codec ID                                 : avc1
Codec ID/Info                            : Advanced Video Coding
Duration                                 : 1h 30mn
Bit rate                                 : 4 542 Kbps
Width                                    : 1 916 pixels
Height                                   : 792 pixels
Display aspect ratio                     : 2.40:1
Frame rate mode                          : Variable
Frame rate                               : 23.976 (23976/1000) fps
Minimum frame rate                       : 23.810 fps
Maximum frame rate                       : 24.390 fps
Color space                              : YUV
Chroma subsampling                       : 4:2:0
Bit depth                                : 8 bits
Scan type                                : Progressive
Bits/(Pixel*Frame)                       : 0.125
Stream size                              : 2.89 GiB (85%)
Language                                 : English
Encoded date                             : UTC 2016-11-21 19:42:24
Tagged date                              : UTC 2016-11-21 20:03:10
Color range                              : Limited
Color primaries                          : BT.709
Transfer characteristics                 : BT.709
Matrix coefficients                      : BT.709
Menus                                    : 5

Audio #1
ID                                       : 2
Format                                   : AC-3
Format/Info                              : Audio Coding 3
Mode extension                           : CM (complete main)
Format settings, Endianness              : Big
Codec ID                                 : ac-3
Duration                                 : 1h 30mn
Bit rate mode                            : Constant
Bit rate                                 : 384 Kbps
Channel(s)                               : 6 channels
Channel positions                        : Front: L C R, Side: L R, LFE
Sampling rate                            : 48.0 KHz
Frame rate                               : 31.250 fps (1536 spf)
Bit depth                                : 16 bits
Compression mode                         : Lossy
Stream size                              : 250 MiB (7%)
Language                                 : Russian
Default                                  : Yes
Alternate group                          : 1
Encoded date                             : UTC 2016-11-21 19:42:24
Tagged date                              : UTC 2016-11-21 20:03:10

Audio #2
ID                                       : 3
Format                                   : AC-3
Format/Info                              : Audio Coding 3
Mode extension                           : CM (complete main)
Format settings, Endianness              : Big
Codec ID                                 : ac-3
Duration                                 : 1h 30mn
Bit rate mode                            : Constant
Bit rate                                 : 384 Kbps
Channel(s)                               : 6 channels
Channel positions                        : Front: L C R, Side: L R, LFE
Sampling rate                            : 48.0 KHz
Frame rate                               : 31.250 fps (1536 spf)
Bit depth                                : 16 bits
Compression mode                         : Lossy
Stream size                              : 250 MiB (7%)
Language                                 : English
Default                                  : No
Alternate group                          : 1
Encoded date                             : UTC 2016-11-21 19:42:24
Tagged date                              : UTC 2016-11-21 20:03:10

Text
ID                                       : 4
Format                                   : Timed Text
Muxing mode                              : sbtl
Codec ID                                 : tx3g
Duration                                 : 1h 30mn
Bit rate mode                            : Variable
Bit rate                                 : 58 bps
Stream size                              : 38.9 KiB (0%)
Language                                 : English
Default                                  : Yes
Forced                                   : No
Alternate group                          : 2
Encoded date                             : UTC 2016-11-21 19:42:24
Tagged date                              : UTC 2016-11-21 20:03:11

Menu
ID                                       : 5
Codec ID                                 : text
Duration                                 : 1h 30mn
Language                                 : English
Encoded date                             : UTC 2016-11-21 20:03:11
Tagged date                              : UTC 2016-11-21 20:03:11
Menu For                                 : 1
00:00:00.000                             : 1
00:06:15.834                             : 2
00:12:46.558                             : 3
00:17:29.591                             : 4
00:21:58.318                             : 5
00:27:23.434                             : 6
00:32:40.584                             : 7
00:36:14.839                             : 8
00:45:06.036                             : 9
00:49:44.522                             : 10
00:54:56.667                             : 11
01:01:04.284                             : 12
01:05:48.943                             : 13
01:12:46.443                             : 14
01:18:30.787                             : 15
01:25:07.350                             : 16
Bit rate mode                            : VBR


Скриншоты:



Время раздачи: 24/7 (круглосуточно) (до появления первых 3-5 скачавших)
 
Не забывайте говорить Спасибо. Не уходите с раздачи!   
Торрент: Зарегистрирован [22 ноя 2016, 06:21] Для скачивания .torrent
необходима регистрация
Или скачать с помощью
MediaGet
Статус:
Проверен
 
.torrent скачан: 0 раз
Хэш: b6ddcfe17c4a6516f54bf938774b5bcd3c65ab02
Размер: 3.38 ГБ (3 625 378 367 байт)
Стать Автором раздачи
 
 
Раздал: 100 ГБ
Скачал: 0 байт
Ратио: Seed.
Сообщения: 94085
Зарегистрирован: 09 апр 2015, 22:31


  • Похожие торренты
    Ответы
    Просмотры
    Последнее сообщение

Вернуться в Видео для мобильных устройств

Ресурс не предоставляет электронные версии произведений, а занимается лишь коллекционированием и каталогизацией ссылок, присылаемых и публикуемых на форуме нашими читателями. Если вы являетесь правообладателем какого-либо представленного материала и не желаете чтобы ссылка на него находилась в нашем каталоге, свяжитесь с нами и мы незамедлительно удалим её. Файлы для обмена на трекере предоставлены пользователями сайта, и администрация не несёт ответственности за их содержание. Просьба не заливать файлы, защищенные авторскими правами, а также файлы нелегального содержания!
cron