На краю Аляски (1-8 серий из 8) / Edge of Alaska [2014) HDTVRip

 
 Статистика раздачи 
Размер: 4.21 ГБ   |  Зарегистрирован: 21 ноя 2016, 15:31   |   .torrent скачан: 0 раз
Сидеров: 1  [ 0 байт/сек ]     Личеров: 0  [ 0 байт/сек ]  
  

На краю Аляски (1-8 серий из 8) / Edge of Alaska [2014) HDTVRip

Сообщение explosiveone » 21 ноя 2016, 15:31

На краю Аляски (1-8 серий из 8) / Edge of Alaska [2014) HDTVRip

Телекомпания: Discovery Channel
Жанр: Документальный, приключения, выживание

Описание:
Где-то в дебрях Аляски затерялся один из самых глухих американских городков - Маккарти. Всем сорока двум его обитателям приходится отважно сражаться с суровой северной природой.

Доп. информация: Релиз от ishana7709
Благодарю за отличный постер Abakan2000



Продолжительность: 8 х ~ 00:44:00
Качество видео: HDTVRip
Перевод: Профессиональный (многоголосый закадровый)

Видео: Xvid, 720 х 400, ~1519 Кбит
Аудио: AC3, 2 ch, 192 Кбит
Код: Выделить всё
General
Complete name                  На краю Аляски GeneralFilm\01 На краю Аляски GeneralFilm.avi
Format                         : AVI
Format/Info                    : Audio Video Interleave
File size                      : 539 MiB
Duration                       : 43mn 42s
Overall bit rate               : 1 723 Kbps
Writing application            : VirtualDubMod 1.5.10.3 | [url=http://www.virtualdub-fr.org]www.virtualdub-fr.org[/url] || (build 2550/release)
Writing library                : VirtualDubMod build 2550/release

Video
ID                             : 0
Format                         : MPEG-4 Visual
Format profile                 : Advanced Simple@L5
Format settings, BVOP          : 1
Format settings, QPel          : No
Format settings, GMC           : No warppoints
Format settings, Matrix        : Default (H.263)
Codec ID                       : XVID
Codec ID/Hint                  : XviD
Duration                       : 43mn 42s
Bit rate                       : 1 519 Kbps
Width                          : 720 pixels
Height                         : 400 pixels
Display aspect ratio           : 16:9
Frame rate                     : 30.000 fps
Color space                    : YUV
Chroma subsampling             : 4:2:0
Bit depth                      : 8 bits
Scan type                      : Progressive
Compression mode               : Lossy
Bits/(Pixel*Frame)             : 0.176
Stream size                    : 475 MiB (88%)
Writing library                : XviD 1.2.1 (UTC 2008-12-04)

Audio
ID                             : 1
Format                         : AC-3
Format/Info                    : Audio Coding 3
Mode extension                 : CM (complete main)
Format settings, Endianness    : Big
Codec ID                       : 2000
Duration                       : 43mn 42s
Bit rate mode                  : Constant
Bit rate                       : 192 Kbps
Channel(s)                     : 2 channels
Channel positions              : Front: L R
Sampling rate                  : 48.0 KHz
Frame rate                     : 31.250 fps (1536 spf)
Compression mode               : Lossy
Stream size                    : 60.0 MiB (11%)
Alignment                      : Split accross interleaves
Interleave, duration           : 33 ms (1.00 video frame)
Interleave, preload duration   : 500 ms

Скриншоты:

 
Не забывайте говорить Спасибо. Не уходите с раздачи!   
Торрент: Зарегистрирован [21 ноя 2016, 15:31] Для скачивания .torrent
необходима регистрация
Или скачать с помощью
MediaGet
Статус:
Проверен
 
.torrent скачан: 0 раз
Хэш: bdf1d094fe1203126ced265a95f2d3de23f5adef
Размер: 4.21 ГБ (4 521 707 520 байт)
Стать Автором раздачи
 
 
Раздал: 100 ГБ
Скачал: 0 байт
Ратио: Seed.
Сообщения: 93573
Зарегистрирован: 09 апр 2015, 22:31


  • Похожие торренты
    Ответы
    Просмотры
    Последнее сообщение

Вернуться в Discovery

Ресурс не предоставляет электронные версии произведений, а занимается лишь коллекционированием и каталогизацией ссылок, присылаемых и публикуемых на форуме нашими читателями. Если вы являетесь правообладателем какого-либо представленного материала и не желаете чтобы ссылка на него находилась в нашем каталоге, свяжитесь с нами и мы незамедлительно удалим её. Файлы для обмена на трекере предоставлены пользователями сайта, и администрация не несёт ответственности за их содержание. Просьба не заливать файлы, защищенные авторскими правами, а также файлы нелегального содержания!
cron