Пит и его дракон / Pete's Dragon (2016) HDRip [H.264] [MP4|1024x428]

 
 Статистика раздачи 
Размер: 1.66 ГБ   |  Зарегистрирован: 21 ноя 2016, 06:00   |   .torrent скачан: 0 раз
Сидеров: 1  [ 0 байт/сек ]     Личеров: 0  [ 0 байт/сек ]  
  

Пит и его дракон / Pete's Dragon (2016) HDRip [H.264] [MP4|1024x428]

Сообщение explosiveone » 21 ноя 2016, 06:00

Пит и его дракон / Pete's Dragon (2016) HDRip

«Some secrets are too big to keep»

Производство: США / Walt Disney Productions
Жанр: Фэнтези, Приключения, Семейный

Режиссер: Дэвид Лоури
Актеры: Брайс Даллас Ховард, Роберт Редфорд, Оакс Фигли, Уна Лоуренс, Уэс Бентли, Карл Урбан, Исайя Уитлок мл., Маркус Хендерсон, Аарон Джексон. Филип Грив

Описание:
В течение многих лет Мистер Мичем забавлял местных детишек сказочными историями о свирепом драконе, обитающим на севере, глубоко в лесах. Для его дочери Грейс все эти истории казались ничем иным как выдумкой, ровно до тех пор, пока она не встретила в лесу маленького мальчика по имени Пит. Пит уже долгое время живет в диком лесу, у него нет ни дома, ни семьи, зато есть замечательный друг — огромный зеленый дракон Эллиот. Грейс решает разгадать историю юного Пита, узнать всю правду о его семье и загадочном драконе, о котором ходит так много слухов и легенд.


Возраст: 6+ (зрителям, достигшим 6 лет)
Рейтинг MPAA: PG (рекомендуется присутствие родителей)

Релиз от: NNMClub
Продолжительность: 01:42:45
Качество видео: HDRip
Перевод: Дублированный (BD CEE)
Вид субтитров: Вшитые отключаемые
Язык субтитров: Английский
Реклама: Без рекламы

Видео: AVC/H.264 (Main@L3.1), 1024x428 (2.40:1), 2050 Кбит/сек
Аудио #1: AAC, 2 канала, 128 Кбит/сек - русский (дублированный)
Аудио #2: AAC, 2 канала, 128 Кбит/сек - английский
Код:
General
Complete name                            : C:\DGI\Pete's.Dragon.2016.576p.BDRip.AAC.h264.NNMclub.mp4
Format                                   : MPEG-4
Format profile                           : Base Media / Version 2
Codec ID                                 : mp42 (mp42/isom)
File size                                : 1.66 GiB
Duration                                 : 1h 42mn
Overall bit rate mode                    : Variable
Overall bit rate                         : 2 312 Kbps
Movie name                               : Pete's Dragon (2016)
Performer                                : David Lowery
Director                                 : David Lowery
Actor                                    : Bryce Dallas Howard / Oakes Fegley / Wes Bentley / Karl Urban / Oona Laurence / Isiah Whitlock Jr. / Robert Redford / Marcus Henderson / Aaron Jackson / Phil Grieve / Steve Barr / Keagan Carr Fransch / Jade Valour / Augustine Frizzell / Francis Biggs / Jasper Putt / Esmee Myers / Gareth Reeves / Levi Alexander / Jim McLarty / Brandie Stephens / Josephine Stephens / Tai MacKenzie / Ian Harcourt / Mia Thomas / Ruby Acevedo / Oliver / Neil / James Allcock / Annabelle-Malaika Suess / Olly Presling / Jenesis Au-Yeung / Daria Ponomaryova / Bukhosi Ngwenya / William J. Rawbone / Fraser McLeod / Richard Falkner / Jason Fitch / David J. Muzzerall / Geoff Naylor / Jade Healy / John Kassir
Screenplay by                            : David Lowery / Toby Halbrooks
Producer                                 : Jim Whitaker
Genre                                    : Sci-Fi & Fantasy
ContentType                              : Short Film
Description                              : For years, old Mr. Meacham has delighted local children with tales of the fierce dragon that resides
Recorded date                            : 2016-08-12
Encoded date                             : UTC 2016-11-20 20:51:51
Tagged date                              : UTC 2016-11-20 21:00:04
Copyright                                : © 2016 Disney Enterprises, Inc
Cover                                    : Yes
LongDescription                          : For years, old Mr. Meacham has delighted local children with tales of the fierce dragon that resides deep in the Pacific Northwest woods. To his daughter Grace, a forest ranger, the stories are little more than tall tales…until she meets Pete, a mysterious 10-year-old with no family or home, who claims to live in the woods with a giant green dragon named Elliot. With the help of 11-year-old Natalie, whose father owns the local lumber mill, Grace sets out to learn where Pete came from, where he belongs, and the truth about this dragon.
AppleStoreCountry                        : United States
AppleStoreCatalogID                      : 1139347886
ContentRating                            : mpaa|PG|200|

Video
ID                                       : 1
Format                                   : AVC
Format/Info                              : Advanced Video Codec
Format profile                           :
Format settings, CABAC                   : Yes
Format settings, ReFrames                : 3 frames
Codec ID                                 : avc1
Codec ID/Info                            : Advanced Video Coding
Duration                                 : 1h 42mn
Bit rate                                 : 2 050 Kbps
Width                                    : 1 024 pixels
Height                                   : 428 pixels
Display aspect ratio                     : 2.40:1
Frame rate mode                          : Variable
Frame rate                               : 23.976 (24000/1001) fps
Minimum frame rate                       : 23.810 fps
Maximum frame rate                       : 24.390 fps
Color space                              : YUV
Chroma subsampling                       : 4:2:0
Bit depth                                : 8 bits
Scan type                                : Progressive
Bits/(Pixel*Frame)                       : 0.195
Stream size                              : 1.47 GiB (89%)
Writing library                          : x264 core 148 r2721+55 e19946b t_mod_Custom [8-bit@all X86_64]
Encoding settings                        : cabac=1 / ref=3 / deblock=1:-1:-1 / analyse=0x1:0x111 / me=umh / subme=7 / psy=1 / fade_compensate=0.00 / psy_rd=1.00:0.20 / mixed_ref=1 / me_range=32 / chroma_me=1 / trellis=2 / 8x8dct=0 / cqm=0 / deadzone=21,11 / fast_pskip=0 / chroma_qp_offset=-3 / threads=12 / lookahead_threads=2 / sliced_threads=0 / nr=0 / decimate=0 / interlaced=0 / bluray_compat=0 / constrained_intra=0 / fgo=0 / bframes=2 / b_pyramid=1 / b_adapt=2 / b_bias=0 / direct=3 / weightb=1 / open_gop=0 / weightp=2 / keyint=240 / keyint_min=23 / scenecut=40 / intra_refresh=0 / rc_lookahead=50 / rc=2pass / mbtree=1 / bitrate=2050 / ratetol=1.0 / qcomp=0.65 / qpmin=0:0:0 / qpmax=69:69:69 / qpstep=4 / cplxblur=20.0 / qblur=0.5 / vbv_maxrate=10000 / vbv_bufsize=10000 / nal_hrd=none / filler=0 / ip_ratio=1.40 / aq=3:0.90 / aq-sensitivity=10.00 / aq-factor=1.00:1.00:1.00 / aq2=1:0.85 / aq2-sensitivity=15.00 / aq2-factor=1.00:1.00:1.00 / aq3=4:[0.50:0.50]:[0.50:0.50]:[0.50:0.50]:[0.50:0.50] / aq3-sensitivity=10.00 / aq3-factor=[1.00:1.00]:[1.00:1.00]:[1.00:1.00] / aq3-boundary=192:64:24
Encoded date                             : UTC 2016-11-20 20:51:51
Tagged date                              : UTC 2016-11-20 20:59:24
Color range                              : Limited
Color primaries                          : BT.709
Transfer characteristics                 : BT.709
Matrix coefficients                      : BT.709
Menus                                    : 6

Audio #1
ID                                       : 2
Format                                   : AAC
Format/Info                              : Advanced Audio Codec
Format profile                           : LC
Codec ID                                 : 40
Duration                                 : 1h 42mn
Source duration                          : 1h 42mn
Bit rate mode                            : Variable
Bit rate                                 : 128 Kbps
Maximum bit rate                         : 133 Kbps
Channel(s)                               : 2 channels
Channel positions                        : Front: L R
Sampling rate                            : 48.0 KHz
Frame rate                               : 46.875 fps (1024 spf)
Compression mode                         : Lossy
Stream size                              : 94.1 MiB (6%)
Source stream size                       : 94.1 MiB (6%)
Language                                 : Russian
Default                                  : Yes
Alternate group                          : 1
Encoded date                             : UTC 2016-11-20 20:51:51
Tagged date                              : UTC 2016-11-20 20:59:24

Audio #2
ID                                       : 3
Format                                   : AAC
Format/Info                              : Advanced Audio Codec
Format profile                           : LC
Codec ID                                 : 40
Duration                                 : 1h 42mn
Source duration                          : 1h 42mn
Bit rate mode                            : Variable
Bit rate                                 : 128 Kbps
Maximum bit rate                         : 133 Kbps
Channel(s)                               : 2 channels
Channel positions                        : Front: L R
Sampling rate                            : 48.0 KHz
Frame rate                               : 46.875 fps (1024 spf)
Compression mode                         : Lossy
Stream size                              : 94.1 MiB (6%)
Source stream size                       : 94.1 MiB (6%)
Language                                 : English
Default                                  : No
Alternate group                          : 1
Encoded date                             : UTC 2016-11-20 20:51:51
Tagged date                              : UTC 2016-11-20 20:59:24

Text #1
ID                                       : 4
Format                                   : Timed Text
Muxing mode                              : sbtl
Codec ID                                 : tx3g
Duration                                 : 1h 39mn
Bit rate mode                            : Variable
Bit rate                                 : 46 bps
Stream size                              : 33.9 KiB (0%)
Language                                 : English
Default                                  : Yes
Forced                                   : No
Alternate group                          : 2
Encoded date                             : UTC 2016-11-20 20:51:51
Tagged date                              : UTC 2016-11-20 20:59:25

Text #2
ID                                       : 5
Format                                   : Timed Text
Muxing mode                              : sbtl
Codec ID                                 : tx3g
Duration                                 : 1h 41mn
Bit rate mode                            : Variable
Bit rate                                 : 52 bps
Stream size                              : 38.9 KiB (0%)
Language                                 : English
Default                                  : No
Forced                                   : No
Alternate group                          : 2
Encoded date                             : UTC 2016-11-20 20:51:51
Tagged date                              : UTC 2016-11-20 20:59:25

Menu
ID                                       : 6
Codec ID                                 : text
Duration                                 : 1h 42mn
Language                                 : English
Encoded date                             : UTC 2016-11-20 20:59:25
Tagged date                              : UTC 2016-11-20 20:59:25
Menu For                                 : 1
00:00:00.000                             : Family Vacation
00:06:03.989                             : The Tale of Dragons
00:09:46.669                             : Playtime with Elliot
00:15:20.128                             : Forest Ranger Grace
00:21:28.496                             : A New Friend
00:30:23.447                             : Hospital Escape
00:36:57.966                             : Finding Elliot
00:44:03.057                             : The Meacham Family
00:52:28.062                             : Replaced
00:56:42.566                             : The Truth
01:03:13.832                             : Capture
01:10:07.078                             : Escape Plan
01:17:17.508                             : Standoff at the Bridge
01:26:46.034                             : Together Again
01:32:26.750                             : Epilogue
01:35:01.362                             : Credits
Bit rate mode                            : VBR


Скриншоты:



Время раздачи: 24/7 (круглосуточно) (до появления первых 3-5 скачавших)
 
Не забывайте говорить Спасибо. Не уходите с раздачи!   
Торрент: Зарегистрирован [21 ноя 2016, 06:00] Для скачивания .torrent
необходима регистрация
Или скачать с помощью
MediaGet
Статус:
Проверен
 
.torrent скачан: 0 раз
Хэш: 44299409200ef23ca91647be42513a831d9ee8de
Размер: 1.66 ГБ (1 782 125 501 байт)
Стать Автором раздачи
 
 
Раздал: 100 ГБ
Скачал: 0 байт
Ратио: Seed.
Сообщения: 94065
Зарегистрирован: 09 апр 2015, 22:31


  • Похожие торренты
    Ответы
    Просмотры
    Последнее сообщение

Вернуться в Видео для мобильных устройств

Ресурс не предоставляет электронные версии произведений, а занимается лишь коллекционированием и каталогизацией ссылок, присылаемых и публикуемых на форуме нашими читателями. Если вы являетесь правообладателем какого-либо представленного материала и не желаете чтобы ссылка на него находилась в нашем каталоге, свяжитесь с нами и мы незамедлительно удалим её. Файлы для обмена на трекере предоставлены пользователями сайта, и администрация не несёт ответственности за их содержание. Просьба не заливать файлы, защищенные авторскими правами, а также файлы нелегального содержания!
cron