Секретная жизнь жемчужин / The Secret Life of Pearls (2015) HDTVRip [H.264]

 
 Статистика раздачи 
Размер: 694.57 МБ   |  Зарегистрирован: 20 ноя 2016, 12:34   |   .torrent скачан: 0 раз
Сидеров: 1  [ 0 байт/сек ]     Личеров: 0  [ 0 байт/сек ]  
  

Секретная жизнь жемчужин / The Secret Life of Pearls (2015) HDTVRip [H.264]

Сообщение explosiveone » 20 ноя 2016, 12:34

Секретная жизнь жемчужин / The Secret Life of Pearls (2015) HDTVRip [H.264]

Телекомпания: США, National Geographic
Жанр: документальный, научно-познавательный, природа

Режиссер: Ник Робинсон

Описание:
Воды Южных морей – удивительный край, где хранятся несметные сокровища, сокрытые внутри невзрачных раковин диких моллюсков. Жемчуг, добытый на северо-западном побережье Австралии - в Кимберли, имеет особую ценность. Из-за превосходно ровной формы и уникальной игры переливов он ценится выше большинства драгоценностей. Охотники за сокровищами часто рискуют жизнью, обследуя глубины морского дна. В этот раз дайверы испытают водную пучину ради редких находок на миллионы долларов. Будет ли удачным их улов?

Продолжительность: 00:44:15
Качество видео: HDTVRip
Перевод: Одноголосый закадровый, профессиональный ("Велес")
Текст читает: Светлана Шейченко

Видео: AVC/H.264, 1024x576, ~2000 kbps
Аудио: MP2, 2 ch, 192 kbps, CBR
Код: Выделить всё
Общее
Уникальный идентификатор                 : 230716736247687406388562487542145104924 (0xAD926D567EED6481934811D028743C1C)
Полное имя                               : F:\КИНО\Секретная жизнь жемчужин.mkv
Формат                                   : Matroska
Версия формата                           : Version 2
Размер файла                             : 695 Мбайт
Продолжительность                        : 44 м. 15 с.
Общий поток                              : 2194 Кбит/сек
Дата кодирования                         : UTC 2016-11-19 15:47:10
Программа кодирования                    : mkvmerge v7.8.0 ('River Man') 32bit built on Apr  3 2015 12:11:22
Библиотека кодирования                   : libebml v1.3.1 + libmatroska v1.4.2

Видео
Идентификатор                            : 1
Формат                                   : AVC
Формат/Информация                        : Advanced Video Codec
Профиль формата                          :
Параметр CABAC формата                   : Да
Параметр ReFrames формата                : 16 кадров
Идентификатор кодека                     : V_MPEG4/ISO/AVC
Продолжительность                        : 44 м. 15 с.
Битрейт                                  : 2000 Кбит/сек
Ширина                                   : 1024 пикселя
Высота                                   : 576 пикселей
Соотношение сторон                       : 16:9
Режим частоты кадров                     : Постоянный
Частота кадров                           : 25,000 кадров/сек
Цветовое пространство                    : YUV
Субдискретизация насыщенности            : 4:2:0
Битовая глубина                          : 8 бит
Тип развёртки                            : Прогрессивная
Бит/(Пиксели*Кадры)                      : 0.136
Размер потока                            : 620 Мбайт (89%)
Библиотека кодирования                   : x264 core 146 r2538 121396c
Настройки программы                      : cabac=1 / ref=16 / deblock=1:-3:-3 / analyse=0x3:0x113 / me=umh / subme=11 / psy=1 / psy_rd=1.00:0.00 / mixed_ref=1 / me_range=48 / chroma_me=1 / trellis=2 / 8x8dct=1 / cqm=0 / deadzone=21,11 / fast_pskip=0 / chroma_qp_offset=-2 / threads=6 / lookahead_threads=1 / sliced_threads=0 / nr=0 / decimate=0 / interlaced=0 / bluray_compat=0 / constrained_intra=0 / bframes=16 / b_pyramid=2 / b_adapt=2 / b_bias=0 / direct=3 / weightb=1 / open_gop=1 / weightp=2 / keyint=240 / keyint_min=23 / scenecut=40 / intra_refresh=0 / rc_lookahead=40 / rc=2pass / mbtree=1 / bitrate=2000 / ratetol=1.0 / qcomp=0.60 / qpmin=0 / qpmax=69 / qpstep=4 / cplxblur=20.0 / qblur=0.5 / vbv_maxrate=14000 / vbv_bufsize=14000 / nal_hrd=none / filler=0 / ip_ratio=1.40 / aq=1:1.10
Default                                  : Да
Forced                                   : Нет

Аудио
Идентификатор                            : 2
Формат                                   : MPEG Audio
Версия формата                           : Version 1
Профиль формата                          : Layer 2
Идентификатор кодека                     : A_MPEG/L2
Идентификатор кодека/Подсказка           : MP2
Продолжительность                        : 44 м. 15 с.
Вид битрейта                             : Постоянный
Битрейт                                  : 192 Кбит/сек
Каналы                                   : 2 канала
Частота                                  : 48,0 КГц
Метод сжатия                             : С потерями
Размер потока                            : 60,8 Мбайт (9%)
Язык                                     : Russian
Default                                  : Да
Forced                                   : Нет

Скриншоты:




Время раздачи: с 18:00 до 23:00 (до появления первых 3-5 скачавших)
 
Не забывайте говорить Спасибо. Не уходите с раздачи!   
Торрент: Зарегистрирован [20 ноя 2016, 12:34] Для скачивания .torrent
необходима регистрация
Или скачать с помощью
MediaGet
Статус:
Проверен
 
.torrent скачан: 0 раз
Хэш: c068d6fb88bc3f78f127eafac5fb67229ec7a418
Размер: 694.57 МБ (728 310 013 байт)
Стать Автором раздачи
 
 
Раздал: 100 ГБ
Скачал: 0 байт
Ратио: Seed.
Сообщения: 82658
Зарегистрирован: 09 апр 2015, 22:31


  • Похожие торренты
    Ответы
    Просмотры
    Последнее сообщение

Вернуться в National Geographic

Кто сейчас на конференции

Сейчас эту тему просматривают: нет зарегистрированных пользователей и гости: 1

Ресурс не предоставляет электронные версии произведений, а занимается лишь коллекционированием и каталогизацией ссылок, присылаемых и публикуемых на форуме нашими читателями. Если вы являетесь правообладателем какого-либо представленного материала и не желаете чтобы ссылка на него находилась в нашем каталоге, свяжитесь с нами и мы незамедлительно удалим её. Файлы для обмена на трекере предоставлены пользователями сайта, и администрация не несёт ответственности за их содержание. Просьба не заливать файлы, защищенные авторскими правами, а также файлы нелегального содержания!