Покорение небес Дэвида Аттенборо (1-3 серии из 4) / David Attenborough's Conquest of the Skies (Дэвид Аттенборо / David Attenborough) [2014, Документальный, живая природа, флора, фауна, BDRip 720p] VO (Омикрон) + Original Eng

 
 Статистика раздачи 
Размер: 8.23 ГБ   |  Зарегистрирован: 19 ноя 2016, 17:45   |   .torrent скачан: 1 раз
Сидеров: 28  [ 0 байт/сек ]     Личеров: 9  [ 0 байт/сек ]  
  

Покорение небес Дэвида Аттенборо (1-3 серии из 4) / David Attenborough's Conquest of the Skies (Дэвид Аттенборо / David Attenborough) [2014, Документальный, живая природа, флора, фауна, BDRip 720p] VO (Омикрон) + Original Eng

Сообщение aLaVodka » 19 ноя 2016, 17:45

Покорение небес Дэвида Аттенборо / David Attenborough's Conquest of the Skies
Год выпуска: 2014
Страна: Великобритания, Colossus Productions, Sky TV
Жанр: Документальный, живая природа, флора, фауна
Продолжительность: 3 ~ 00:53:00
Перевод: Студийный (одноголосый закадровый)
Доп. инфо о переводе: Студия «Омикрон»
Русские субтитры: нет

Режиссер: Дэвид Аттенборо / David Attenborough

Описание: Способность летать является одним из величайших достижений природы. Более ста миллиардов существ парят в небе сегодня, от крошечной, питающейся нектаром колибри до защищённых бронёй жуков, причудливых крылатых ящериц и летучих мышей, охотящихся тёмной ночью и ориентирующихся с помощью ультразвука. В документальном сериале Покорении небес, Дэвид Аттенборо путешествует во времени, чтобы разгадать удивительную, 300-миллионолетнюю историю летающих животных. Кто были первые летающие существа, как они развивались, и как приспособились в огромном разнообразии воздухоплавателей, которые заполняют наше небо сегодня? Только теперь он может выяснить скрытую механику преодоления ими земного притяжения, используя передовые CGI-технологии, новейшие технологии съемки с высоким разрешением, и новаторский научный анализ.
1. Первые летающие / The First to Fly
2. Соперники / Rivals
3. Триумф / Triumph
4. Как снимался фильм
Цитата:
Релиз -

Перевод Виктора Петренко. Озвучено студией «Омикрон» специально для HDCLUB.
Задействован 1 актер.
Русская дорожка получена наложением чистого голоса.
Озвучивание осуществлено в рамках сервиса "Озвучивание". Спонсоры: uniss, Voldemar_13, gelom, macdac, laser10, superbizho, churbakov, ash61, jackalope, DOMINO, tiger_cub, AlexRozen, Telezhnikov, user_hdclub, SpaceShuttle, track74, crt007, Plesha, SCORP_E, utadmin, dmitrydiaz, kornilov7, zw, brother225, smart1982.

Сэмпл: http://multi-up.com/1122028

Тип релиза: BDRip 720p
Контейнер: MKV

Видео: MPEG-4 AVC, ~ 4355 Кбит/с, 1280x720, 23.976 fps
Аудио 1: Русский (DTS, 6 ch, 1509 Кбит/с, 48.0 KHz)
Аудио 2: Английский (DTS, 6 ch, 1509 Кбит/с, 48.0 KHz)
Код: Выделить всё
General
Unique ID                   : 204696068492781298410242528039144593485 (0x99FF075E2EAF57C2B9A5A231BEB1184D)
Complete name               : D:\Раздачи\David.Attenborough's.Conquest.of.the.Skies.720p.BluRay.Rus.Eng.HDCLUB\David.Attenborough's.Conquest.of.the.Skies.E01.720p.BluRay.Rus.Eng.HDCLUB.mkv
Format                      : Matroska
Format version              : Version 2
File size                   : 2.75 GiB
Duration                    : 53mn 16s
Overall bit rate            : 7 377 Kbps
Encoded date                : UTC 2016-08-23 22:40:23
Writing application         : mkvmerge v3.2.0 ('Beginnings') built on Feb 12 2010 16:46:17
Writing library             : libebml v0.7.9 + libmatroska v0.8.1

Video
ID                          : 1
Format                      : AVC
Format/Info                 : Advanced Video Codec
Format profile              : High@L4.1
Format settings, CABAC      : Yes
Format settings, ReFrames   : 5 frames
Codec ID                    : V_MPEG4/ISO/AVC
Duration                    : 53mn 16s
Bit rate                    : 4 355 Kbps
Width                       : 1 280 pixels
Height                      : 720 pixels
Display aspect ratio        : 16:9
Frame rate mode             : Constant
Frame rate                  : 23.976 (24000/1001) fps
Color space                 : YUV
Chroma subsampling          : 4:2:0
Bit depth                   : 8 bits
Scan type                   : Progressive
Bits/(Pixel*Frame)          : 0.197
Stream size                 : 1.57 GiB (57%)
Writing library             : x264 core 144 r2525 40bb568
Encoding settings           : cabac=1 / ref=5 / deblock=1:-2:-2 / analyse=0x3:0x113 / me=umh / subme=8 / psy=1 / psy_rd=1.00:0.00 / mixed_ref=1 / me_range=16 / chroma_me=1 / trellis=1 / 8x8dct=1 / cqm=0 / deadzone=21,11 / fast_pskip=1 / chroma_qp_offset=-2 / threads=6 / lookahead_threads=1 / sliced_threads=0 / nr=0 / decimate=1 / interlaced=0 / bluray_compat=0 / constrained_intra=0 / bframes=3 / b_pyramid=2 / b_adapt=2 / b_bias=0 / direct=3 / weightb=1 / open_gop=0 / weightp=2 / keyint=240 / keyint_min=24 / scenecut=40 / intra_refresh=0 / rc_lookahead=50 / rc=2pass / mbtree=1 / bitrate=4355 / ratetol=1.0 / qcomp=0.60 / qpmin=0 / qpmax=69 / qpstep=4 / cplxblur=20.0 / qblur=0.5 / ip_ratio=1.40 / aq=1:1.00
Language                    : English
Default                     : No
Forced                      : No

Audio #1
ID                          : 2
Format                      : DTS
Format/Info                 : Digital Theater Systems
Mode                        : 16
Format settings, Endianness : Big
Codec ID                    : A_DTS
Duration                    : 53mn 16s
Bit rate mode               : Constant
Bit rate                    : 1 509 Kbps
Channel(s)                  : 6 channels
Channel positions           : Front: L C R, Side: L R, LFE
Sampling rate               : 48.0 KHz
Frame rate                  : 93.750 fps (512 spf)
Bit depth                   : 16 bits
Compression mode            : Lossy
Stream size                 : 575 MiB (20%)
Title                       : DTS 5.1 @ 1536 kbps - Одноголосый закадровый, студия "Омикрон"
Language                    : Russian
Default                     : Yes
Forced                      : No

Audio #2
ID                          : 3
Format                      : DTS
Format/Info                 : Digital Theater Systems
Mode                        : 16
Format settings, Endianness : Big
Codec ID                    : A_DTS
Duration                    : 53mn 16s
Bit rate mode               : Constant
Bit rate                    : 1 509 Kbps
Channel(s)                  : 6 channels
Channel positions           : Front: L C R, Side: L R, LFE
Sampling rate               : 48.0 KHz
Frame rate                  : 93.750 fps (512 spf)
Bit depth                   : 24 bits
Compression mode            : Lossy
Delay relative to video     : 11ms
Stream size                 : 575 MiB (20%)
Title                       : DTS 5.1 @ 1536 kbps
Language                    : English
Default                     : No
Forced                      : No

Menu
00:00:00.000                : en:00:00:00.000
00:11:15.425                : en:00:11:15.425
00:14:04.093                : en:00:14:04.093
00:19:57.738                : en:00:19:57.738
00:39:27.115                : en:00:39:27.115
00:42:16.325                : en:00:42:16.325

General
Unique ID                   : 197033803553485574975119607712238578496 (0x943B548A15E11E6FA9C8119C3DFCAB40)
Complete name               : D:\Раздачи\David.Attenborough's.Conquest.of.the.Skies.720p.BluRay.Rus.Eng.HDCLUB\David.Attenborough's.Conquest.of.the.Skies.E02.720p.BluRay.Rus.Eng.HDCLUB.mkv
Format                      : Matroska
Format version              : Version 2
File size                   : 2.74 GiB
Duration                    : 52mn 29s
Overall bit rate            : 7 466 Kbps
Encoded date                : UTC 2016-10-08 12:00:59
Writing application         : mkvmerge v3.2.0 ('Beginnings') built on Feb 12 2010 16:46:17
Writing library             : libebml v0.7.9 + libmatroska v0.8.1

Video
ID                          : 1
Format                      : AVC
Format/Info                 : Advanced Video Codec
Format profile              : High@L4.1
Format settings, CABAC      : Yes
Format settings, ReFrames   : 5 frames
Codec ID                    : V_MPEG4/ISO/AVC
Duration                    : 52mn 29s
Bit rate                    : 4 444 Kbps
Width                       : 1 280 pixels
Height                      : 720 pixels
Display aspect ratio        : 16:9
Frame rate mode             : Constant
Frame rate                  : 23.976 (24000/1001) fps
Color space                 : YUV
Chroma subsampling          : 4:2:0
Bit depth                   : 8 bits
Scan type                   : Progressive
Bits/(Pixel*Frame)          : 0.201
Stream size                 : 1.58 GiB (58%)
Writing library             : x264 core 144 r2525 40bb568
Encoding settings           : cabac=1 / ref=5 / deblock=1:-2:-2 / analyse=0x3:0x113 / me=umh / subme=8 / psy=1 / psy_rd=1.00:0.00 / mixed_ref=1 / me_range=16 / chroma_me=1 / trellis=1 / 8x8dct=1 / cqm=0 / deadzone=21,11 / fast_pskip=1 / chroma_qp_offset=-2 / threads=6 / lookahead_threads=1 / sliced_threads=0 / nr=0 / decimate=1 / interlaced=0 / bluray_compat=0 / constrained_intra=0 / bframes=3 / b_pyramid=2 / b_adapt=2 / b_bias=0 / direct=3 / weightb=1 / open_gop=0 / weightp=2 / keyint=240 / keyint_min=24 / scenecut=40 / intra_refresh=0 / rc_lookahead=50 / rc=2pass / mbtree=1 / bitrate=4444 / ratetol=1.0 / qcomp=0.60 / qpmin=0 / qpmax=69 / qpstep=4 / cplxblur=20.0 / qblur=0.5 / ip_ratio=1.40 / aq=1:1.00
Language                    : English
Default                     : No
Forced                      : No

Audio #1
ID                          : 2
Format                      : DTS
Format/Info                 : Digital Theater Systems
Mode                        : 16
Format settings, Endianness : Big
Codec ID                    : A_DTS
Duration                    : 52mn 29s
Bit rate mode               : Constant
Bit rate                    : 1 509 Kbps
Channel(s)                  : 6 channels
Channel positions           : Front: L C R, Side: L R, LFE
Sampling rate               : 48.0 KHz
Frame rate                  : 93.750 fps (512 spf)
Bit depth                   : 16 bits
Compression mode            : Lossy
Stream size                 : 566 MiB (20%)
Title                       : DTS 5.1 @ 1536 kbps - Одноголосый закадровый, студия "Омикрон"
Language                    : Russian
Default                     : Yes
Forced                      : No

Audio #2
ID                          : 3
Format                      : DTS
Format/Info                 : Digital Theater Systems
Mode                        : 16
Format settings, Endianness : Big
Codec ID                    : A_DTS
Duration                    : 52mn 29s
Bit rate mode               : Constant
Bit rate                    : 1 509 Kbps
Channel(s)                  : 6 channels
Channel positions           : Front: L C R, Side: L R, LFE
Sampling rate               : 48.0 KHz
Frame rate                  : 93.750 fps (512 spf)
Bit depth                   : 24 bits
Compression mode            : Lossy
Delay relative to video     : 11ms
Stream size                 : 566 MiB (20%)
Title                       : DTS 5.1 @ 1536 kbps
Language                    : English
Default                     : No
Forced                      : No

Menu
00:00:00.000                : en:00:00:00.000
00:07:21.358                : en:00:07:21.358
00:17:05.983                : en:00:17:05.983
00:23:39.084                : en:00:23:39.084
00:34:13.677                : en:00:34:13.677
00:44:48.519                : en:00:44:48.519
 
Не забывайте говорить Спасибо. Не уходите с раздачи!   
Торрент: Зарегистрирован [19 ноя 2016, 17:45] Для скачивания .torrent
необходима регистрация
Или скачать с помощью
MediaGet
Статус:
Проверен
 
.torrent скачан: 1 раз
Хэш: 0ac7e17f94beef26211829af51949ce88c1a97c1
Размер: 8.23 ГБ (8 832 818 105 байт)
Стать Автором раздачи
 
 
Раздал: 100 ГБ
Скачал: 0 байт
Ратио: Seed.
Сообщения: 186454
Зарегистрирован: 09 апр 2015, 20:00


  • Похожие торренты
    Ответы
    Просмотры
    Последнее сообщение

Вернуться в Флора и фауна (HD Video)

Кто сейчас на конференции

Сейчас эту тему просматривают: нет зарегистрированных пользователей и гости: 1

Ресурс не предоставляет электронные версии произведений, а занимается лишь коллекционированием и каталогизацией ссылок, присылаемых и публикуемых на форуме нашими читателями. Если вы являетесь правообладателем какого-либо представленного материала и не желаете чтобы ссылка на него находилась в нашем каталоге, свяжитесь с нами и мы незамедлительно удалим её. Файлы для обмена на трекере предоставлены пользователями сайта, и администрация не несёт ответственности за их содержание. Просьба не заливать файлы, защищенные авторскими правами, а также файлы нелегального содержания!