Артиллерия Второй мировой войны (4 серии из 4) (Андрей Кулясов) [2016, Документальный, вооружение, война, история, WEBRip(576p)]]

 
 Статистика раздачи 
Размер: 2.61 ГБ   |  Зарегистрирован: 19 ноя 2016, 12:19   |   .torrent скачан: 109 раз
Сидеров: 9  [ 0 байт/сек ]     Личеров: 1  [ 0 байт/сек ]  
  

Артиллерия Второй мировой войны (4 серии из 4) (Андрей Кулясов) [2016, Документальный, вооружение, война, история, WEBRip(576p)]]

Сообщение aLaVodka » 19 ноя 2016, 12:19

Артиллерия Второй мировой войны (4 серии из 4)

Дата/Год выпуска: 2016
Страна: Россия, ООО «Студия «Крылья», ОАО «ТРК ВС РФ «ЗВЕЗДА»
Жанр: Документальный, вооружение, война, история
Продолжительность: 4 х ~ 00:37:43
Перевод: Не требуется
Режиссер: Андрей Кулясов

Телеканал: «ЗВЕЗДА»

Описание: Для артиллерии ХХ век с двумя его большими войнами стал новым этапом развития. К тому моменту она уже прошла многовековой путь и, наряду с пехотой и кавалерией, являлась древнейшим родом войск. Уже с первых дней Второй мировой войны артиллерия показала себя в новых условиях достаточно эффективно. Зенитная и противотанковая артиллерия стала той силой, которая была способна нейтрализовать две главные угрозы той войны - танки и авиацию. Безусловно, общая победа зависела от многих факторов. Но, не остановив танки и самолёты, на успех операций рассчитывать не приходилось. С первых дней войны артиллеристы Красной Армии старались выстроить на пути немецкой армии непреодолимую стену. И враг был остановлен. А потом война покатилась туда, откуда пришла. И вскоре уже советские орудия стали наносить удары по территории противника.

Доп. информация: Доп. информация: Авторство релиза - alf62
БОЛЬШОЕ СПАСИБО Barents, за предоставленный постер!



качество: WEBRip
формат: MKV
Видео: MPEG-4 AVC, 2250 Кбит/с, 1024x576
Аудио: 48 kHz, AC3 Dolby Digital, 2/0 (L,R) ch, ~192.00 kbps avg
1. Бог войны
5 мая 1941 года в Кремле проходил торжественный приём, посвящённый выпуску слушателей военных академий. Уже после официальной части, на банкете, Сталин произнёс знаменитые слова: «Артиллерия - бог современной войны!» До вторжения Германии на территорию СССР оставалось 47 дней. С каким артиллерийским вооружением подошла наша страна к началу этого трагического периода нашей истории? В этой серии рассказывается о дивизионной артиллерии, как советской, так и немецкой.

2. Трудная цель
Начав Вторую мировую войну, Германия сделала ставку на танковые войска и авиацию как на основные инструменты тактики блицкрига. Нейтрализовать эти две главные угрозы должны были зенитная и противотанковая артиллерия. Перед первым рейдом на Москву генерал-фельдмаршал Кессельринг пообещал пилотам «лёгкую прогулку». Однако в этом налете было сбито 22 самолёта, почти половина из них пришлась на ПВО. И к борьбе с танками советская артиллерия, в отличие от немецкой, была подготовлена хорошо. А в начальный, самый сложный период войны, многие орудия ПВО использовались как противотанковые. При битве за Москву расчёт одного зенитного орудия под командованием Гайка Шадунца остановил атаку 23 немецких танков.

3. Артиллерийская дуэль
За годы Второй мировой войны на полную мощь немецкая тяжёлая артиллерия работала только в Советском Союзе. Это означало одно - германская победоносная тактика блицкрига закончилась. Вермахт стал применять сверхмощные артиллерийские орудия, включая железнодорожную установку «Дора» калибра 800 миллиметров. Ее снаряд весил свыше 7 тонн. А Красная Армия с успехом воевала с отечественной пушкой-гаубицей МЛ-20 калибром всего 152 мм. Для борьбы с танками ее снарядам даже не требовалось прямое попадание.

4. Новое оружие
За время Великой Отечественной у Красной Армии появилось два новых вида вооружения - реактивная и самоходная артиллерия. Уже в середине июля 1941 года по железнодорожной станции Орша был нанесен удар боевыми машинами реактивной артиллерии БМ-13 - легендарными «Катюшами». Все попытки немецких конструкторов произвести подобное оружие к успеху так и не привели. А создание самоходной артиллерии было обусловлено переломом в ходе войны: мобильные орудия больше всего необходимы именно в наступлении. Так на вооружении нашей армии появились легендарные самоходки - СУ-76, СУ-122, СУ-85, СУ-100, а также знаменитые «зверобои» - ИСУ.
Код: Выделить всё
Артиллерия.ВМВ.(1.серия.из.4).Бог.войны.2016.AVC.WEB-DLRip.alf62.mkv
Формат                                   : Matroska
Версия формата                           : Version 4 / Version 2
Размер файла                             : 659 Мбайт
Продолжительность                        : 37 м.
Общий поток                              : 2444 Кбит/сек
Дата кодирования                         : UTC 2016-11-14 20:57:04
Программа кодирования                    : mkvmerge v6.0.0 ('Coming Up For Air') built on Jan 20 2013 09:52:00
Библиотека кодирования                   : libebml v1.3.0 + libmatroska v1.4.0

Видео
Идентификатор                            : 1
Формат                                   : AVC
Формат/Информация                        : Advanced Video Codec
Профиль формата                          : High@L4.1
Параметр CABAC формата                   : Да
Параметр ReFrames формата                : 9 кадров
Идентификатор кодека                     : V_MPEG4/ISO/AVC
Продолжительность                        : 37 м.
Битрейт                                  : 2250 Кбит/сек
Ширина                                   : 1024 пикселя
Высота                                   : 576 пикселей
Соотношение сторон                       : 16:9
Режим частоты кадров                     : Постоянный
Частота кадров                           : 25,000 кадров/сек
Цветовое пространство                    : YUV
Субдискретизация насыщенности            : 4:2:0
Битовая глубина                          : 8 бит
Тип развёртки                            : Прогрессивная
Бит/(Пиксели*Кадры)                      : 0.153
Размер потока                            : 594 Мбайт (90%)
Библиотека кодирования                   : x264 core 146 r2538 121396c
Настройки программы                      : cabac=1 / ref=9 / deblock=1:-2:-2 / analyse=0x3:0x113 / me=umh / subme=10 / psy=1 / psy_rd=1.00:0.00 / mixed_ref=1 / me_range=32 / chroma_me=1 / trellis=2 / 8x8dct=1 / cqm=0 / deadzone=21,11 / fast_pskip=0 / chroma_qp_offset=-2 / threads=6 / lookahead_threads=1 / sliced_threads=0 / nr=0 / decimate=0 / interlaced=0 / bluray_compat=0 / constrained_intra=0 / bframes=9 / b_pyramid=2 / b_adapt=2 / b_bias=0 / direct=3 / weightb=1 / open_gop=0 / weightp=2 / keyint=250 / keyint_min=25 / scenecut=40 / intra_refresh=0 / rc_lookahead=40 / rc=2pass / mbtree=0 / bitrate=2250 / ratetol=1.0 / qcomp=0.60 / qpmin=10 / qpmax=51 / qpstep=4 / cplxblur=20.0 / qblur=0.5 / vbv_maxrate=14000 / vbv_bufsize=14000 / nal_hrd=none / filler=0 / ip_ratio=1.40 / pb_ratio=1.30 / aq=1:0.80
Default                                  : Да
Forced                                   : Нет

Аудио
Идентификатор                            : 2
Формат                                   : AC-3
Формат/Информация                        : Audio Coding 3
Расширение режима                        : CM (complete main)
Параметр Endianness формата              : Big
Идентификатор кодека                     : A_AC3
Продолжительность                        : 37 м.
Вид битрейта                             : Постоянный
Битрейт                                  : 192 Кбит/сек
Каналы                                   : 2 канала
Расположение каналов                     : Front: L R
Частота                                  : 48,0 КГц
Битовая глубина                          : 16 бит
Метод сжатия                             : С потерями
Задержка видео                           : 150 мс.
Размер потока                            : 51,8 Мбайт (8%)
Default                                  : Да
Forced                                   : Нет




 
Не забывайте говорить Спасибо. Не уходите с раздачи!   
Торрент: Зарегистрирован [19 ноя 2016, 12:19] Для скачивания .torrent
необходима регистрация
Или скачать с помощью
MediaGet
Статус:
Проверен
 
.torrent скачан: 109 раз
Хэш: 9631261b4e016bcd03e382bb2bac271f3edebae0
Размер: 2.61 ГБ (2 803 723 867 байт)
Стать Автором раздачи
 
 
Раздал: 100 ГБ
Скачал: 0 байт
Ратио: Seed.
Сообщения: 186623
Зарегистрирован: 09 апр 2015, 20:00


  • Похожие торренты
    Ответы
    Просмотры
    Последнее сообщение

Вернуться в Вторая мировая война

Кто сейчас на конференции

Сейчас эту тему просматривают: нет зарегистрированных пользователей и гости: 1

Ресурс не предоставляет электронные версии произведений, а занимается лишь коллекционированием и каталогизацией ссылок, присылаемых и публикуемых на форуме нашими читателями. Если вы являетесь правообладателем какого-либо представленного материала и не желаете чтобы ссылка на него находилась в нашем каталоге, свяжитесь с нами и мы незамедлительно удалим её. Файлы для обмена на трекере предоставлены пользователями сайта, и администрация не несёт ответственности за их содержание. Просьба не заливать файлы, защищенные авторскими правами, а также файлы нелегального содержания!