BBC: Танцы на грани тьмы - это конец физики? / Dancing in the Dark - The End of Physics? (2015) SATRip

 
 Статистика раздачи 
Размер: 695.91 МБ   |  Зарегистрирован: 17 ноя 2016, 03:43   |   .torrent скачан: 0 раз
Сидеров: 1  [ 0 байт/сек ]     Личеров: 0  [ 0 байт/сек ]  
  

BBC: Танцы на грани тьмы - это конец физики? / Dancing in the Dark - The End of Physics? (2015) SATRip

Сообщение explosiveone » 17 ноя 2016, 03:43

Танцы на грани тьмы - это конец физики? / Dancing in the Dark - The End of Physics? (2015) SATRip

Производство: Великобритания / ВВС Scince Production London
Жанр: Документальный

Режиссер: Петер Леонард

Описание:
Миллиарды долларов! Тысячи предположений и теорий! И все ради одной цели - узнать, что же такое чёрная материя! Ответ на этот вопрос позволит разгадать космические головоломки и решить ряд острых проблем в физике. Но что если ученые не найдут то, что ищут? Что если это конец физики?



Продолжительность: ~00:49:00
Качество видео: SATRip
Перевод: Двуголосый закадровый, профессиональный | Компания "Видео Фильм ТВ"

Видео: Xvid, 720x400, ~1796 Kbps
Аудио: AC3, 2 ch, 192 Kbps, CBR
Код: Выделить всё
Общее
Полное имя                               : E:\BBC_Horizon_Dancing in the Dark_The End of Physics[NNMClub].avi
Формат                                   : AVI
Формат/Информация                        : Audio Video Interleave
Размер файла                             : 696 Мбайт
Продолжительность                        : 48 м. 46 с.
Общий поток                              : 1995 Кбит/сек

Видео
Идентификатор                            : 0
Формат                                   : MPEG-4 Visual
Профиль формата                          : Advanced [email protected]
Параметр BVOP формата                    : 2
Параметр QPel формата                    : Нет
Параметр GMC формата                     : Без точки перехода
Параметр матрицы формата                 : Default (H.263)
Режим смешивания                         : Сжатый битовый поток
Идентификатор кодека                     : XVID
Идентификатор кодека/Подсказка           : XviD
Продолжительность                        : 48 м. 46 с.
Битрейт                                  : 1796 Кбит/сек
Ширина                                   : 720 пикселей
Высота                                   : 400 пикселей
Соотношение сторон                       : 16:9
Частота кадров                           : 25,000 кадров/сек
Цветовое пространство                    : YUV
Субдискретизация насыщенности            : 4:2:0
Битовая глубина                          : 8 бит
Тип развёртки                            : Прогрессивная
Метод сжатия                             : С потерями
Бит/(Пиксели*Кадры)                      : 0.249
Размер потока                            : 626 Мбайт (90%)
Библиотека кодирования                   : XviD 73

Аудио
Идентификатор                            : 1
Формат                                   : AC-3
Формат/Информация                        : Audio Coding 3
Расширение режима                        : CM (complete main)
Параметр Endianness формата              : Big
Идентификатор кодека                     : 2000
Продолжительность                        : 48 м. 45 с.
Вид битрейта                             : Постоянный
Битрейт                                  : 192 Кбит/сек
Каналы                                   : 2 канала
Расположение каналов                     : Front: L R
Частота                                  : 48,0 КГц
Частота кадров                           : 31,250 кадров/сек (1536 spf)
Метод сжатия                             : С потерями
Размер потока                            : 67,0 Мбайт (10%)
Выравнивание                             : Соединение по промежуткам
Продолжительность промежутка             : 240  мс. (6,00 видеокадров)
Время предзагрузки промежутка            : 224  мс.

Скриншоты:



Время раздачи: 24/7 (до появления первых 3-5 скачавших)
 
Не забывайте говорить Спасибо. Не уходите с раздачи!   
Торрент: Зарегистрирован [17 ноя 2016, 03:43] Для скачивания .torrent
необходима регистрация
Или скачать с помощью
MediaGet
Статус:
Проверен
 
.torrent скачан: 0 раз
Хэш: ae70573cd2234b6ef4781215665592b5daf1532a
Размер: 695.91 МБ (729 715 800 байт)
Стать Автором раздачи
 
 
Раздал: 100 ГБ
Скачал: 0 байт
Ратио: Seed.
Сообщения: 82289
Зарегистрирован: 09 апр 2015, 22:31


  • Похожие торренты
    Ответы
    Просмотры
    Последнее сообщение

Вернуться в BBC

Кто сейчас на конференции

Сейчас эту тему просматривают: нет зарегистрированных пользователей и гости: 1

Ресурс не предоставляет электронные версии произведений, а занимается лишь коллекционированием и каталогизацией ссылок, присылаемых и публикуемых на форуме нашими читателями. Если вы являетесь правообладателем какого-либо представленного материала и не желаете чтобы ссылка на него находилась в нашем каталоге, свяжитесь с нами и мы незамедлительно удалим её. Файлы для обмена на трекере предоставлены пользователями сайта, и администрация не несёт ответственности за их содержание. Просьба не заливать файлы, защищенные авторскими правами, а также файлы нелегального содержания!