NG: Марс / Mars (2016) WEB-DLRip (сезон 1, серия 1 из 6) (обновляемая)

 
 Статистика раздачи 
Размер: 556.13 МБ   |  Зарегистрирован: 14 ноя 2016, 07:17   |   .torrent скачан: 0 раз
Сидеров: 1  [ 0 байт/сек ]     Личеров: 0  [ 0 байт/сек ]  
  

NG: Марс / Mars (2016) WEB-DLRip (сезон 1, серия 1 из 6) (обновляемая)

Сообщение explosiveone » 14 ноя 2016, 07:17

Марс / Mars (2016) WEB-DLRip (сезон 1, серия 1 из 6)

Страна: США
Режиссер / Телекомпания: Эверардо Валерио Гоут, Imagine Entertainment, Radical Media, Zak Productions, National Geographic
Жанр: Документально-постановочный, фантастика, драма, приключения

Актеры: Альберто Амман, Бен Коттон, Ката Сарбо, Николас Уиттман, Карен Ганьон, Том Нгуйен, Ген Сето, Наранцогт Цогцаикхан, Цогбаатар Бацориг, Алекс Саракко

Описание:
Действие приключенческого сериала происходит в настоящем и недалеком будущем. В 2033 году на красную планету на борту корабля «Дедал» должна отправиться первая интерациональная команда исследователей под командованием американца Бена Сойера (Бен Коттон). Задача астронавтов — успешно высадиться на планете и начать ее заселение. В сериале «Марс» использованы художественные и документальные съемки, компьютерная графика, реконструирующая пейзажи далекой планеты, интервью современных ученых и изобретателей.



Продолжительность: ~00:47:00 серия
Качество видео: WEB-DLRip

Перевод: Двухголосый закадровый, профессиональный (студия «Велес»)
Текст читали: Марина Гладкая и Дмитрий Стрелков

Видео: XviD, 720x400 (16:9), ~1422 Кбит/сек
Аудио: AC3, 2 ch, 192 kbps
Код: Общее
Полное имя                               : N:\Марс (сезон 1) Mars (2016) WEB-DLRip\Марс S01E01.avi
Формат                                   : AVI
Формат/Информация                        : Audio Video Interleave
Размер файла                             : 556 Мбайт
Продолжительность                        : 47 м. 53 с.
Общий поток                              : 1623 Кбит/сек
Программа кодирования                    : VirtualDubMod 1.5.10.3 | www.virtualdub-fr.org || (build 2550/release)
Библиотека кодирования                   : VirtualDubMod build 2550/release

Видео
Идентификатор                            : 0
Формат                                   : MPEG-4 Visual
Профиль формата                          : Advanced Simple@L5
Параметр BVOP формата                    : 1
Параметр QPel формата                    : Нет
Параметр GMC формата                     : Без точки перехода
Параметр матрицы формата                 : Выборочная
Идентификатор кодека                     : XVID
Идентификатор кодека/Подсказка           : XviD
Продолжительность                        : 47 м. 53 с.
Битрейт                                  : 1422 Кбит/сек
Ширина                                   : 720 пикселей
Высота                                   : 400 пикселей
Соотношение сторон                       : 16:9
Частота кадров                           : 25,000 кадров/сек
Цветовое пространство                    : YUV
Субдискретизация насыщенности            : 4:2:0
Битовая глубина                          : 8 бит
Тип развёртки                            : Прогрессивная
Метод сжатия                             : С потерями
Бит/(Пиксели*Кадры)                      : 0.197
Размер потока                            : 487 Мбайт (88%)
Библиотека кодирования                   : XviD 73

Аудио
Идентификатор                            : 1
Формат                                   : AC-3
Формат/Информация                        : Audio Coding 3
Расширение режима                        : CM (complete main)
Параметр Endianness формата              : Big
Идентификатор кодека                     : 2000
Продолжительность                        : 47 м. 53 с.
Вид битрейта                             : Постоянный
Битрейт                                  : 192 Кбит/сек
Каналы                                   : 2 канала
Расположение каналов                     : Front: L R
Частота                                  : 48,0 КГц
Частота кадров                           : 31,250 кадров/сек (1536 spf)
Битовая глубина                          : 16 бит
Метод сжатия                             : С потерями
Размер потока                            : 65,8 Мбайт (12%)
Выравнивание                             : Разделение по промежуткам
Продолжительность промежутка             : 40  мс. (1,00 видеокадр)
Время предзагрузки промежутка            : 500  мс.

01. Ново Мундо / Novo Mundo
Раздача ведётся путём добавления новых серий; при каждом добавлении создаётся новый торрент. Чтобы начать докачку новой серии, пользователям необходимо сделать следующее:
(1) остановить скачивание,
(2) удалить старый торрент у себя из клиента (старые серии удалять не надо),
(3) скачать новый торрент и запустить его у себя в клиенте вместо старого, при этом указать клиенту путь в старую папку куда и должно происходить скачивание новых серий.

Ваш клиент при этом должен произвести хеширование (проверку) старой папки (если не производит сам - помогите ему сделать это), и будет докачивать только те серии которых у вас ещё нет. Старые серии при этом не удаляются, а продолжают раздаваться!

Eсли вы уже удалили старые серии, то предотвратить повторную закачку старых серий можно, отжав галочку в соответствующих местах при запуске нового торрента. По возможности, желательно не удалять старые серии как можно дольше чтобы релизёр не столько продолжал раздавать старые серии, а смог сконцентрироваться на новых.

Скриншоты:




Время раздачи: 24/7. До первых 10 скачавших
 
Не забывайте говорить Спасибо. Не уходите с раздачи!   
Торрент: Зарегистрирован [14 ноя 2016, 07:17] Для скачивания .torrent
необходима регистрация
Или скачать с помощью
MediaGet
Статус:
Проверен
 
.torrent скачан: 0 раз
Хэш: b9fc71bfcc6667ac4d255fa9fa64ad7566fd5acb
Размер: 556.13 МБ (583 147 520 байт)
Стать Автором раздачи
 
 
Раздал: 100 ГБ
Скачал: 0 байт
Ратио: Seed.
Сообщения: 89734
Зарегистрирован: 09 апр 2015, 22:31


Вернуться в National Geographic

Ресурс не предоставляет электронные версии произведений, а занимается лишь коллекционированием и каталогизацией ссылок, присылаемых и публикуемых на форуме нашими читателями. Если вы являетесь правообладателем какого-либо представленного материала и не желаете чтобы ссылка на него находилась в нашем каталоге, свяжитесь с нами и мы незамедлительно удалим её. Файлы для обмена на трекере предоставлены пользователями сайта, и администрация не несёт ответственности за их содержание. Просьба не заливать файлы, защищенные авторскими правами, а также файлы нелегального содержания!
cron